Мушкетеры / The Musketeers [S01-02] (2014-2015) WEB-DLRip, HDTVRip от Generalfilm | NewStudio

 
 Статистика раздачи 
Размер: 15.67 ГБ   |  Зарегистрирован: 02 сен 2015, 21:26   |   .torrent скачан: 21 раз
Сидеров: 22  [ 0 байт/сек ]     Личеров: 6  [ 0 байт/сек ]  
  

Мушкетеры / The Musketeers [S01-02] (2014-2015) WEB-DLRip, HDTVRip от Generalfilm | NewStudio

Сообщение ExaByte » 02 сен 2015, 21:26




Информация о фильме
Название: Мушкетеры
Оригинальное название: The Musketeers
Год выхода: 2014
Жанр: Драма, приключения, костюмированный
Режиссер: Тоби Хэйнс, Фэррен Блэкберн, Ричард Кларк
В ролях: Люк Паскуалино, Том Бёрк, Ховард Чарльз, Сантьяго Кабрера, Александра Доулинг, Питер Капальди, Райан Гейдж, Мэйми МакКой, Хьюго Спир, Шарлотта Хоуп, Джулиан Бастида, Эмили Бичем, Филип Броди, Кевин Кларк, Джей Джей Филд, Тамла Кари, Эбигейл Райс, Джеймс Кэллис, Шон Сернов, Фиона Глэскотт, Джим Хай, Энтон Лессер, Саймон Микок, Стюарт Мур, Анна Скеллерн, Эшли Уолтерс, Власта Сваткова

О фильме:
Мушкетеры собираются на улицах Парижа в семнадцатом веке, где закон и порядок являются больше идеей, чем реальностью. Личные телохранители короля Людовика XIII, Атос, Арамис и Портос решительно стоят за социальную справедливость, за честь, за доблесть, так же за любовь — и за острые ощущения.



Страна: Великобритания
Студия: BBC One, BBC America
Продолжительность: 20 х ~00:57:00
Перевод: Профессиональный (многоголосый, закадровый) [NewStudio]

Файл
Формат: AVI
Качество: WEB-DLRip, HDTVRip
Видео: XviD, 720x400, ~1804 kbps, 25.000 fps
Звук: AC3, 48.0 KHz, 2 ch, 192 Kbps
Субтитры: Нет

HDTVRip - Видеоряд чистый, без рекламы и логотипа телеканала.

Семпл


General
Complete name : E:KinoMushketjory.XviD.GeneralfilmMushketjory.S01.2014.XviD.WEB-DLRip.GeneralfilmMushketjory.s01e01.2014.XviD.WEB-DLRip.Generalfilm.avi
Format : AVI
Format/Info : Audio Video Interleave
File size : 847 MiB
Duration : 59mn 1s
Overall bit rate : 2 005 Kbps
Writing application : VirtualDubMod 1.5.10.3 | www.virtualdub-fr.org || (build 2550/release)
Writing library : VirtualDubMod build 2550/release

Video
ID : 0
Format : MPEG-4 Visual
Format profile : Advanced Simple@L5
Format settings, BVOP : 2
Format settings, QPel : No
Format settings, GMC : No warppoints
Format settings, Matrix : Default (H.263)
Codec ID : XVID
Codec ID/Hint : XviD
Duration : 59mn 1s
Bit rate : 1 804 Kbps
Width : 720 pixels
Height : 400 pixels
Display aspect ratio : 16:9
Frame rate : 25.000 fps
Color space : YUV
Chroma subsampling : 4:2:0
Bit depth : 8 bits
Scan type : Progressive
Compression mode : Lossy
Bits/(Pixel*Frame) : 0.251
Stream size : 761 MiB (90%)
Writing library : XviD 1.2.1 (UTC 2008-12-04)

Audio
ID : 1
Format : AC-3
Format/Info : Audio Coding 3
Mode extension : CM (complete main)
Format settings, Endianness : Big
Codec ID : 2000
Duration : 59mn 1s
Bit rate mode : Constant
Bit rate : 192 Kbps
Channel count : 2 channels
Channel positions : Front: L R
Sampling rate : 48.0 KHz
Bit depth : 16 bits
Compression mode : Lossy
Stream size : 81.1 MiB (10%)
Alignment : Split accross interleaves
Interleave, duration : 40 ms (1.00 video frame)
Interleave, preload duration : 500 ms

Релиз от:
 
Не забывайте говорить Спасибо. Не уходите с раздачи!   
Торрент: Зарегистрирован [02 сен 2015, 21:26] Для скачивания .torrent
необходима регистрация
Или скачать с помощью
MediaGet
Статус:
Проверен
 
.torrent скачан: 21 раз
Хэш: 1a258826ab4d726254374157a71b85116ed1e42c
Размер: 15.67 ГБ (16 830 263 296 байт)
Стать Автором раздачи
 
 
Раздал: 2.54 ГБ
Скачал: 0 байт
Ратио: Seed.
Сообщения: 236702
Зарегистрирован: 05 июл 2013, 10:11


  • Похожие торренты
    Ответы
    Просмотры
    Последнее сообщение

Вернуться в Сериалы

Ресурс не предоставляет электронные версии произведений, а занимается лишь коллекционированием и каталогизацией ссылок, присылаемых и публикуемых на форуме нашими читателями. Если вы являетесь правообладателем какого-либо представленного материала и не желаете чтобы ссылка на него находилась в нашем каталоге, свяжитесь с нами и мы незамедлительно удалим её. Файлы для обмена на трекере предоставлены пользователями сайта, и администрация не несёт ответственности за их содержание. Просьба не заливать файлы, защищенные авторскими правами, а также файлы нелегального содержания!
cron