Мушкетеры / The Musketeers [S01-02] (2014-2015) WEB-DLRip, HDTVRip от Generalfilm | КПК | NewStudio

 
 Статистика раздачи 
Размер: 4.94 ГБ   |  Зарегистрирован: 02 сен 2015, 21:26   |   .torrent скачан: 474 раз
Сидеров: 27  [ 0 байт/сек ]     Личеров: 6  [ 0 байт/сек ]  
  

Мушкетеры / The Musketeers [S01-02] (2014-2015) WEB-DLRip, HDTVRip от Generalfilm | КПК | NewStudio

Сообщение ExaByte » 02 сен 2015, 21:26




Информация о фильме
Название: Мушкетеры
Оригинальное название: The Musketeers
Год выхода: 2014
Жанр: Драма, приключения, костюмированный
Режиссер: Тоби Хэйнс, Фэррен Блэкберн, Ричард Кларк
В ролях: Люк Паскуалино, Том Бёрк, Ховард Чарльз, Сантьяго Кабрера, Александра Доулинг, Питер Капальди, Райан Гейдж, Мэйми МакКой, Хьюго Спир, Шарлотта Хоуп, Джулиан Бастида, Эмили Бичем, Филип Броди, Кевин Кларк, Джей Джей Филд, Тамла Кари, Эбигейл Райс, Джеймс Кэллис, Шон Сернов, Фиона Глэскотт, Джим Хай, Энтон Лессер, Саймон Микок, Стюарт Мур, Анна Скеллерн, Эшли Уолтерс, Власта Сваткова

О фильме:
Мушкетеры собираются на улицах Парижа в семнадцатом веке, где закон и порядок являются больше идеей, чем реальностью. Личные телохранители короля Людовика XIII, Атос, Арамис и Портос решительно стоят за социальную справедливость, за честь, за доблесть, так же за любовь — и за острые ощущения.



Страна: Великобритания
Студия: BBC One, BBC America
Продолжительность: 20 х ~00:57:00
Перевод: Профессиональный (многоголосый, закадровый) [NewStudio]

Файл
Формат: MP4
Качество: WEB-DLRip, HDTVRip | КПК
Видео: MPEG-4 AVC (x264), 640x360, ~500 kbps, 25.000 fps
Аудио: AAC LC, 48.0 KHz, 2 ch, 128 Kbps
Субтитры: Нет

HDTVRip - Видеоряд чистый, без рекламы и логотипа телеканала.

Семпл


Complete name : E:KinoMushketjory.AVC.KPK.GeneralfilmMushketjory.S02.2015.AVC.HDTVRip.KPK.GeneralfilmMushketjory.s02e06.2015.AVC.HDTVRip.KPK.Generalfilm.mp4
Format : MPEG-4
Codec ID : M4V
File size : 255 MiB
Duration : 56mn 8s
Overall bit rate mode : Variable
Overall bit rate : 634 Kbps
Writing application : Lavf53.19.0

Video
ID : 1
Format : AVC
Format/Info : Advanced Video Codec
Format profile : High@L4.1
Format settings, CABAC : Yes
Format settings, ReFrames : 8 frames
Codec ID : avc1
Codec ID/Info : Advanced Video Coding
Duration : 56mn 8s
Bit rate : 500 Kbps
Width : 640 pixels
Height : 360 pixels
Display aspect ratio : 16:9
Frame rate mode : Constant
Frame rate : 25.000 fps
Color space : YUV
Chroma subsampling : 4:2:0
Bit depth : 8 bits
Scan type : Progressive
Bits/(Pixel*Frame) : 0.087
Stream size : 201 MiB (79%)
Writing library : x264 core 130 r2273 b3065e6
Encoding settings : cabac=1 / ref=8 / deblock=1:-2:-2 / analyse=0x3:0x133 / me=umh / subme=10 / psy=1 / psy_rd=1.00:0.00 / mixed_ref=1 / me_range=24 / chroma_me=1 / trellis=2 / 8x8dct=1 / cqm=0 / deadzone=21,11 / fast_pskip=1 / chroma_qp_offset=-2 / threads=12 / lookahead_threads=2 / sliced_threads=0 / nr=0 / decimate=0 / interlaced=0 / bluray_compat=0 / constrained_intra=0 / bframes=8 / b_pyramid=2 / b_adapt=2 / b_bias=0 / direct=3 / weightb=1 / open_gop=0 / weightp=2 / keyint=250 / keyint_min=126 / scenecut=40 / intra_refresh=0 / rc_lookahead=40 / rc=2pass / mbtree=1 / bitrate=500 / ratetol=1.0 / qcomp=0.60 / qpmin=0 / qpmax=69 / qpstep=4 / cplxblur=20.0 / qblur=0.5 / ip_ratio=1.40 / aq=1:1.00

Audio
ID : 2
Format : AAC
Format/Info : Advanced Audio Codec
Format profile : LC
Codec ID : 40
Duration : 56mn 8s
Bit rate mode : Variable
Bit rate : 128 Kbps
Channel(s) : 2 channels
Channel positions : Front: L R
Sampling rate : 48.0 KHz
Compression mode : Lossy
Stream size : 51.4 MiB (20%)

Релиз от:
 
Не забывайте говорить Спасибо. Не уходите с раздачи!   
Торрент: Зарегистрирован [02 сен 2015, 21:26] Для скачивания .torrent
необходима регистрация
Или скачать с помощью
MediaGet
Статус:
Проверен
 
.torrent скачан: 474 раз
Хэш: f78cb3690cd51c056710a164195410085f1c3882
Размер: 4.94 ГБ (5 308 947 029 байт)
Стать Автором раздачи
 
 
Раздал: 2.54 ГБ
Скачал: 0 байт
Ратио: Seed.
Сообщения: 236702
Зарегистрирован: 05 июл 2013, 10:11


  • Похожие торренты
    Ответы
    Просмотры
    Последнее сообщение

Вернуться в Сериалы

Ресурс не предоставляет электронные версии произведений, а занимается лишь коллекционированием и каталогизацией ссылок, присылаемых и публикуемых на форуме нашими читателями. Если вы являетесь правообладателем какого-либо представленного материала и не желаете чтобы ссылка на него находилась в нашем каталоге, свяжитесь с нами и мы незамедлительно удалим её. Файлы для обмена на трекере предоставлены пользователями сайта, и администрация не несёт ответственности за их содержание. Просьба не заливать файлы, защищенные авторскими правами, а также файлы нелегального содержания!
cron