Вызов / Defiance [S03] (2015) WEB-DL 1080p | LostFilm

 
 Статистика раздачи 
Размер: 23.01 ГБ   |  Зарегистрирован: 02 сен 2015, 00:05   |   .torrent скачан: 19755 раз
Сидеров: 40  [ 0 байт/сек ]     Личеров: 37  [ 0 байт/сек ]  
  

Вызов / Defiance [S03] (2015) WEB-DL 1080p | LostFilm

Сообщение PetaByte » 02 сен 2015, 00:05




Информация о фильме
Название: Непокорная Земля / Вызов
Оригинальное название: Defiance
Год выхода: 2015
Жанр: фантастика, боевик, драма
Режиссер: Майкл Нанкин
В ролях: Грант Боулер, Джули Бенц, Дьюшэйн Уильямс, Тони Карран, Тренна Китинг, Стефани Леонидас, Джейми Мюррэй, Николь Муньос, Джессика Николс, Джастин Рэйн

О фильме:
Сюжет сериала "Вызов" рассказывает о Земле, какой она стала после Бледных войн: противостояния землян и прилетевших "на поселение" инопланетян, чья система бинарных солнц превратилась в сверхновую. После того, как потери с обеих сторон достигли ужасных размеров и на Землю по ошибке попали терраформирующие машины инопланетян, горстка солдат осознала бессмысленность взаимного истребления и бросает вызов своим командирам. Цепная реакция привела к перемирию между землянами и вотанцами. В начале сериала со времен объявления перемирия прошло 15 лет. Бывший солдат Джозеф Нолан со своей приемной дочкой-инопланетянкой Айриссой попадает в некогда родной Сент-Луис, и вынужденно становится защитником местных жителей на посту шерифа. Ему предстоит жить в городе, ныне носящем гордое название Вызов, населенном представителями 6 рас, и бороться с силами, пытающимися стереть его с лица Земли.



Страна: США
Студия: SyFy, Universal Cable Productions
Продолжительность: 00:45:00
Перевод: Профессиональный (многоголосый, закадровый) LostFilm

Файл
Формат: MKV
Кодек: MPEG-4 AVC
Качество: WEB-DL 1080p
Видео: 1920x1080, 23.976 fps, 5200 kbps
Звук: Аудио кодек: AC3
Аудио Rus: 48 kHz, AC3, 2 ch, 384 kbps
Аудио Eng: 48 kHz, AC3, 2 ch, 384 kbps

Релиз от:

01-02. Мир, который мы захватим/Последние единороги / The World We Seize/The Last Unicorns
03. Сломанная ветвь / The Broken Bough
04. Тишина в эфире / Dead Air
05. История рифмуется / History Rhymes
06. Куда покатились яблоки / Where the Apples Fell
07. Красота нашего оружия / The Beauty of Our Weapons
08. Меня зовут Датак Тарр и я пришёл убить вас / My Name Is Datak Tarr and I Have Come to Kill You
09. Остинато в белом / Ostinato in White
10. Когда небо погаснет в сумерках / When Twilight Dims the Sky Above
11. В демона преображаясь / Of a Demon in My View
12. Пробуждение / The Awakening
13. Смерть застигнет нас в походе / Upon the March We Fittest Die
General
Format : Matroska
Format version : Version 4 / Version 2
File size : 3.50 GiB
Duration : 1h 23mn
Overall bit rate : 6 012 Kbps
Encoded date : UTC 2015-06-15 21:25:58
Writing application : mkvmerge v7.7.0 ('Six Voices') 64bit built on Feb 28 2015 23:39:33
Writing library : libebml v1.3.1 + libmatroska v1.4.2
DURATION : 01:23:19.264000000
NUMBER_OF_FRAMES : 156227
NUMBER_OF_BYTES : 239964672
_STATISTICS_WRITING_APP : mkvmerge v7.7.0 ('Six Voices') 64bit built on Feb 28 2015 23:39:33
_STATISTICS_WRITING_DATE_UTC : 2015-06-15 21:25:58
_STATISTICS_TAGS : BPS DURATION NUMBER_OF_FRAMES NUMBER_OF_BYTES

Video
ID : 1
Format : AVC
Format/Info : Advanced Video Codec
Format profile : High@L4.0
Format settings, CABAC : Yes
Format settings, ReFrames : 2 frames
Codec ID : V_MPEG4/ISO/AVC
Duration : 1h 23mn
Bit rate : 5 242 Kbps
Width : 1 920 pixels
Height : 1 080 pixels
Display aspect ratio : 16:9
Frame rate mode : Constant
Frame rate : 23.976 fps
Color space : YUV
Chroma subsampling : 4:2:0
Bit depth : 8 bits
Scan type : Progressive
Bits/(Pixel*Frame) : 0.105
Stream size : 2.98 GiB (85%)
Writing library : x264 core 112 r1834 a51816a
Encoding settings : cabac=1 / ref=1 / deblock=1:0:0 / analyse=0x3:0x133 / me=umh / subme=7 / psy=1 / psy_rd=1.00:0.00 / mixed_ref=0 / me_range=16 / chroma_me=1 / trellis=1 / 8x8dct=1 / cqm=0 / deadzone=21,11 / fast_pskip=1 / chroma_qp_offset=-2 / threads=12 / sliced_threads=0 / nr=0 / decimate=1 / interlaced=0 / constrained_intra=0 / bframes=5 / b_pyramid=0 / b_adapt=1 / b_bias=0 / direct=3 / weightb=1 / open_gop=0 / weightp=2 / keyint=250 / keyint_min=25 / scenecut=40 / intra_refresh=0 / rc_lookahead=40 / rc=2pass / mbtree=1 / bitrate=5242 / ratetol=1.0 / qcomp=0.60 / qpmin=0 / qpmax=51 / qpstep=4 / cplxblur=20.0 / qblur=0.5 / ip_ratio=1.40 / aq=1:1.00
Default : Yes
Forced : No

Audio #1
ID : 2
Format : AC-3
Format/Info : Audio Coding 3
Mode extension : CM (complete main)
Format settings, Endianness : Big
Codec ID : A_AC3
Duration : 1h 23mn
Bit rate mode : Constant
Bit rate : 384 Kbps
Channel(s) : 2 channels
Channel positions : Front: L R
Sampling rate : 48.0 KHz
Bit depth : 16 bits
Compression mode : Lossy
Stream size : 229 MiB (6%)
Default : Yes
Forced : No

Audio #2
ID : 3
Format : AC-3
Format/Info : Audio Coding 3
Mode extension : CM (complete main)
Format settings, Endianness : Big
Codec ID : A_AC3
Duration : 1h 23mn
Bit rate mode : Constant
Bit rate : 384 Kbps
Channel(s) : 2 channels
Channel positions : Front: L R
Sampling rate : 48.0 KHz
Bit depth : 16 bits
Compression mode : Lossy
Stream size : 229 MiB (6%)
Default : No
Forced : No
 
Не забывайте говорить Спасибо. Не уходите с раздачи!   
Торрент: Зарегистрирован [02 сен 2015, 00:05] Для скачивания .torrent
необходима регистрация
Или скачать с помощью
MediaGet
Статус:
Проверен
 
.torrent скачан: 19755 раз
Хэш: 83beece184c44f937eef976768290f9c0fb92984
Размер: 23.01 ГБ (24 709 152 623 байт)
Стать Автором раздачи
 
 
Раздал: 10 ГБ
Скачал: 8 МБ
Ратио: 1280.000
Сообщения: 234240
Зарегистрирован: 22 фев 2013, 11:10


  • Похожие торренты
    Ответы
    Просмотры
    Последнее сообщение

Вернуться в Сериалы

Ресурс не предоставляет электронные версии произведений, а занимается лишь коллекционированием и каталогизацией ссылок, присылаемых и публикуемых на форуме нашими читателями. Если вы являетесь правообладателем какого-либо представленного материала и не желаете чтобы ссылка на него находилась в нашем каталоге, свяжитесь с нами и мы незамедлительно удалим её. Файлы для обмена на трекере предоставлены пользователями сайта, и администрация не несёт ответственности за их содержание. Просьба не заливать файлы, защищенные авторскими правами, а также файлы нелегального содержания!
cron