VA - 538 Dance Smash 2015 Vol.3 (2015) [FLAC|Lossless]<House, Electro, Dance>

 
 Статистика раздачи 
Размер: 542.28 МБ   |  Зарегистрирован: 29 авг 2015, 12:21   |   .torrent скачан: 1 раз
Сидеров: 1  [ 0 байт/сек ]     Личеров: 0  [ 0 байт/сек ]  
  

VA - 538 Dance Smash 2015 Vol.3 (2015) [FLAC|Lossless]<House, Electro, Dance>

Сообщение Nakazhu » 29 авг 2015, 12:21

VA - 538 Dance Smash 2015 Vol.3 (2015)

Год: 2015
Жанр: House, Electro, Dance
Продолжительность: 01:16:07
Издатель (лейбл): Universal Music
Номер по каталогу: 472 341-8

Кодек: FLAC
Битрейт: Lossless
Тип рипа: image+.cue

Треклист:
01. Felix Jaehn feat. Jasmine Thompson - Ain't Nobody
02. Martin Garrix vs. Matisse & Sadko - Break Through The Silence
03. Sam Feldt - Show Me Love (EDZ's Indian Summer Remix)
04. Axwell ^ Ingrosso - Sun Is Shining
05. Lil' Kleine & Ronnie Flex - Drank & Drugs
06. David Guetta feat. Nicki Minaj, Bebe Rexha & Afrojack - Hey Mama
07. Avicii - Waiting For Love
08. Joe Stone feat. Montell Jordan - The Party (This Is How We Do It)
09. Armin van Buuren feat. Mr. Probz - Another You
10. Eva Simons feat. Konshens - Policeman
11. Lost Frequencies feat. Janiek Devy - Reality
12. Hardwell feat. Jason Derulo - Follow Me
13. Martin Solveig feat. Sam White - +1
14. KSHMR - Jammu
15. Zedd feat. Jon Bellion - Beautiful Now
16. Oliver Heldens & Shaun Frank feat. Delany Jane - Shades Of Grey
17. Camelphat - Constellations
18. The Magician - Together
19. Lago - Karibu
20. Dimitri Vegas & Like Mike feat. Ne-Yo - Higher Place
21. W&W - The One
22. DVBBS - Raveheart
23. Jan Hinke - 5UUR38 Mix, Vol. 3
Код:
Код: Выделить всё
Exact Audio Copy V1.0 beta 6 from 9. April 2015

EAC extraction logfile from 22. August 2015, 9:24

- / 538 Dance Smash 2015 vol.3

Used drive  : hp      CDDVDW SH-216DB   Adapter: 1  ID: 0

Read mode               : Secure
Utilize accurate stream : Yes
Defeat audio cache      : Yes
Make use of C2 pointers : No

Read offset correction                      : 6
Overread into Lead-In and Lead-Out          : No
Fill up missing offset samples with silence : Yes
Delete leading and trailing silent blocks   : No
Null samples used in CRC calculations       : Yes
Used interface                              : Native Win32 interface for Win NT & 2000

Used output format : Internal WAV Routines
Sample format      : 44.100 Hz; 16 Bit; Stereo

TOC of the extracted CD

     Track |   Start  |  Length  | Start sector | End sector
    ---------------------------------------------------------
        1  |  0:00.00 |  3:58.70 |         0    |    17919
        2  |  3:58.70 |  3:21.64 |     17920    |    33058
        3  |  7:20.59 |  3:52.00 |     33059    |    50458
        4  | 11:12.59 |  3:00.65 |     50459    |    64023
        5  | 14:13.49 |  2:24.04 |     64024    |    74827
        6  | 16:37.53 |  3:11.12 |     74828    |    89164
        7  | 19:48.65 |  3:46.64 |     89165    |   106178
        8  | 23:35.54 |  2:59.71 |    106179    |   119674
        9  | 26:35.50 |  3:09.30 |    119675    |   133879
       10  | 29:45.05 |  3:12.01 |    133880    |   148280
       11  | 32:57.06 |  2:37.29 |    148281    |   160084
       12  | 35:34.35 |  3:16.74 |    160085    |   174858
       13  | 38:51.34 |  3:08.62 |    174859    |   189020
       14  | 42:00.21 |  3:01.12 |    189021    |   202607
       15  | 45:01.33 |  3:35.46 |    202608    |   218778
       16  | 48:37.04 |  3:21.67 |    218779    |   233920
       17  | 51:58.71 |  3:30.35 |    233921    |   249705
       18  | 55:29.31 |  2:47.16 |    249706    |   262246
       19  | 58:16.47 |  3:26.73 |    262247    |   277769
       20  | 61:43.45 |  2:50.74 |    277770    |   290593
       21  | 64:34.44 |  2:24.35 |    290594    |   301428
       22  | 66:59.04 |  3:30.02 |    301429    |   317180
       23  | 70:29.06 |  5:38.12 |    317181    |   342542

Range status and errors

Selected range

     Filename E:\POST\Post Nieuw\538 Dance Smash 2015 vol.3 (EAC)\538 Dance Smash 2015 vol.3.wav

     Peak level 96.6 %
     Extraction speed 8.0 X
     Range quality 100.0 %
     Test CRC BAEF8988
     Copy CRC BAEF8988
     Copy OK

No errors occurred

AccurateRip summary

Track  1  not present in database
Track  2  not present in database
Track  3  not present in database
Track  4  not present in database
Track  5  not present in database
Track  6  not present in database
Track  7  not present in database
Track  8  not present in database
Track  9  not present in database
Track 10  not present in database
Track 11  not present in database
Track 12  not present in database
Track 13  not present in database
Track 14  not present in database
Track 15  not present in database
Track 16  not present in database
Track 17  not present in database
Track 18  not present in database
Track 19  not present in database
Track 20  not present in database
Track 21  not present in database
Track 22  not present in database
Track 23  not present in database

None of the tracks are present in the AccurateRip database

End of status report
Код:
Код: Выделить всё
-----------------------

DON'T MODIFY THIS FILE

-----------------------

PERFORMER: auCDtect Task Manager, ver. 1.6.0 RC1 build 1.6.0.1
Copyright (c) 2008-2010 y-soft. All rights reserved
http:/y-soft.org

ANALYZER: auCDtect: CD records authenticity detector, version 0.8.2
Copyright (c) 2004 Oleg Berngardt. All rights reserved.
Copyright (c) 2004 Alexander Djourik. All rights reserved.

FILE: 538 Dance Smash 2015 Vol. 3.flac
  Size: 558154870 Hash: 300FBC38077C8202A52D9E1EC4C71084 Accuracy: -m0
  Conclusion: CDDA 99%
  Signature: 153C0EC65CFD3CB112496D8B5E9AE97AF9083FC2
Код:
Код: Выделить всё
REM GENRE Dance
REM DATE 2015
REM DISCID 5311D717
REM COMMENT ExactAudioCopy v1.0b6
PERFORMER "Various"
TITLE "538 Dance Smash 2015 vol.3"
FILE "538 Dance Smash 2015 vol.3.wav" WAVE
  TRACK 01 AUDIO
    TITLE "Ain't Nobody"
    PERFORMER "Felix Jaehn feat. Jasmine Thompson"
    INDEX 01 00:00:00
  TRACK 02 AUDIO
    TITLE "Break Through The Silence"
    PERFORMER "Martin Garrix vs. Matisse & Sadko"
    INDEX 01 03:58:70
  TRACK 03 AUDIO
    TITLE "Show Me Love (EDZ's Indian Summer Remix)"
    PERFORMER "Sam Feldt"
    INDEX 01 07:20:59
  TRACK 04 AUDIO
    TITLE "Sun Is Shining"
    PERFORMER "Axwell ^ Ingrosso"
    INDEX 01 11:12:59
  TRACK 05 AUDIO
    TITLE "Drank & Drugs"
    PERFORMER "Lil' Kleine & Ronnie Flex"
    INDEX 01 14:13:49
  TRACK 06 AUDIO
    TITLE "Hey Mama"
    PERFORMER "David Guetta feat. Nicki Minaj, Bebe Rexha & Afrojack"
    INDEX 01 16:37:53
  TRACK 07 AUDIO
    TITLE "Waiting For Love"
    PERFORMER "Avicii"
    INDEX 01 19:48:65
  TRACK 08 AUDIO
    TITLE "The Party (This Is How We Do It)"
    PERFORMER "Joe Stone feat. Montell Jordan"
    INDEX 01 23:35:54
  TRACK 09 AUDIO
    TITLE "Another You"
    PERFORMER "Armin van Buuren feat. Mr. Probz"
    INDEX 01 26:35:50
  TRACK 10 AUDIO
    TITLE "Policeman"
    PERFORMER "Eva Simons feat. Konshens"
    INDEX 01 29:45:05
  TRACK 11 AUDIO
    TITLE "Reality"
    PERFORMER "Lost Frequencies feat. Janiek Devy"
    INDEX 01 32:57:06
  TRACK 12 AUDIO
    TITLE "Follow Me"
    PERFORMER "Hardwell feat. Jason Derulo"
    INDEX 01 35:34:35
  TRACK 13 AUDIO
    TITLE "+1"
    PERFORMER "Martin Solveig feat. Sam White"
    INDEX 01 38:51:34
  TRACK 14 AUDIO
    TITLE "Jammu"
    PERFORMER "KSHMR"
    INDEX 01 42:00:21
  TRACK 15 AUDIO
    TITLE "Beautiful Now"
    PERFORMER "Zedd feat. Jon Bellion"
    INDEX 01 45:01:33
  TRACK 16 AUDIO
    TITLE "Shades Of Grey"
    PERFORMER "Oliver Heldens & Shaun Frank feat. Delany Jane"
    INDEX 01 48:37:04
  TRACK 17 AUDIO
    TITLE "Constellations"
    PERFORMER "Camelphat"
    INDEX 01 51:58:71
  TRACK 18 AUDIO
    TITLE "Together"
    PERFORMER "The Magician"
    INDEX 01 55:29:31
  TRACK 19 AUDIO
    TITLE "Karibu"
    PERFORMER "Lago"
    INDEX 01 58:16:47
  TRACK 20 AUDIO
    TITLE "Higher Place"
    PERFORMER "Dimitri Vegas & Like Mike feat. Ne-Yo"
    INDEX 01 61:43:45
  TRACK 21 AUDIO
    TITLE "The One"
    PERFORMER "W&W"
    INDEX 01 64:34:44
  TRACK 22 AUDIO
    TITLE "Raveheart"
    PERFORMER "DVBBS"
    INDEX 01 66:59:04
  TRACK 23 AUDIO
    TITLE "5UUR38 Mix, Vol. 3"
    PERFORMER "Jan Hinke"
    INDEX 01 70:29:06

Время раздачи: 24/7 (круглосуточно)
 
Не забывайте говорить Спасибо. Не уходите с раздачи!   
Торрент: Зарегистрирован [29 авг 2015, 12:21] Скачать торрент
Скачать торрент
[ Размер 11.79 КБ / Просмотров 24 ]
Статус:
Проверен
 
.torrent скачан: 1 раз
Хэш: a2eeccb95ffe93e853b1d005e4967717487c601e
Размер: 542.28 МБ (568 617 712 байт)
Стать Автором раздачи
 
 
Раздал: 0 байт
Скачал: 0 байт
Ратио: Inf.
Сообщения: 487468
Зарегистрирован: 17 апр 2014, 13:57


  • Похожие торренты
    Ответы
    Просмотры
    Последнее сообщение

Вернуться в House, Techno, Electro, Minimal (транзит Lossless)

Ресурс не предоставляет электронные версии произведений, а занимается лишь коллекционированием и каталогизацией ссылок, присылаемых и публикуемых на форуме нашими читателями. Если вы являетесь правообладателем какого-либо представленного материала и не желаете чтобы ссылка на него находилась в нашем каталоге, свяжитесь с нами и мы незамедлительно удалим её. Файлы для обмена на трекере предоставлены пользователями сайта, и администрация не несёт ответственности за их содержание. Просьба не заливать файлы, защищенные авторскими правами, а также файлы нелегального содержания!
cron