Страница 1 из 1

Ирина Круг - Лучшие песни. Видеоальбом (2015) DVD5

СообщениеДобавлено: 29 авг 2015, 11:22
Nakazhu
Ирина Круг - Лучшие песни. Видеоальбом (2015) DVD5

Производство: Россия
Жанр: Музыка

Треклист:
01. Тебе моя последняя любовь
02. Шанель
03. Я прочитаю в глазах твоих
04. Букет из белых роз
05. Дом на горе
06. Где ты
07. Моя королева
08. Встретились глаза
09. Любить не страшно
10. Напиши мне
11. Прости меня
12. Снег
13. Перелетная птица
14. Ива
15. Ключики

Продолжительность: 00:52:02
Качество видео: DVD5
Перевод: Отсутствует
Субтитры: нет
Меню: есть
Дополнительно: Бонусы: нет

Видео: MPEG-2, 720x576@1024х576, ~7845 kbps
Аудио: AC3, 2 ch, 192 kbps, CBR
Код:
Код: Выделить всё
Общее
Полное имя                               : \irina_krug_luchshee\VIDEO_TS\VTS_01_1.VOB
Формат                                   : MPEG-PS
Размер файла                             : 1024 Мбайт
Продолжительность                        : 19 м.
Режим общего битрейта                    : Переменный
Общий поток                              : 7437 Кбит/сек

Видео
Идентификатор                            : 224 (0xE0)
Формат                                   : MPEG Video
Версия формата                           : Version 2
Профиль формата                          : Main@Main
Параметр BVOP формата                    : Да
Параметр матрицы формата                 : По умолчанию
Параметр GOP формата                     : M=3, N=12
Продолжительность                        : 19 м.
Вид битрейта                             : Переменный
Битрейт                                  : 7097 Кбит/сек
Максимальный битрейт                     : 9008 Кбит/сек
Ширина                                   : 720 пикселей
Высота                                   : 576 пикселей
Соотношение сторон                       : 16:9
Частота кадров                           : 24,000 кадра/сек
Стандарт вещания                         : PAL
Цветовое пространство                    : YUV
Субдискретизация насыщенности            : 4:2:0
Битовая глубина                          : 8 бит
Тип развёртки                            : Прогрессивная
Порядок развёртки                        : 2:2:2:2:2:2:2:2:2:2:2:3 Pulldown
Метод сжатия                             : С потерями
Бит/(Пиксели*Кадры)                      : 0.713
Размер потока                            : 977 Мбайт (95%)

Аудио
Идентификатор                            : 189 (0xBD)-128 (0x80)
Формат                                   : AC-3
Формат/Информация                        : Audio Coding 3
Расширение режима                        : CM (complete main)
Параметр Endianness формата              : Big
Режим смешивания                         : DVD-Video
Продолжительность                        : 19 м.
Вид битрейта                             : Постоянный
Битрейт                                  : 192 Кбит/сек
Каналы                                   : 2 канала
Расположение каналов                     : Front: L R
Частота                                  : 48,0 КГц
Битовая глубина                          : 16 бит
Метод сжатия                             : С потерями
Размер потока                            : 26,4 Мбайт (3%)

Меню

Код:
Код: Выделить всё
Title: irina_krug_luchshee
Size: 2.77 Gb ( 2 902 038,00 KBytes ) - DVD-5
Enabled regions: 1, 2, 3, 4, 5, 6, 7, 8

VTS_01 :
  Play Length: 00:52:02
  Video: PAL 16:9 (720x576) VBR, Auto Letterboxed
  Audio:
      Not specified, AC3, 2/0 (L,R) ch, 192 kbps, Delay 0 mSec

* Menus Information *

VIDEO_TS Menu
Video:
      PAL 4:3 (720x576) VBR
Audio:
      Not specified (LinearPCM, 2 ch)
Language Unit :
      Title Menu

VTS_01 Menu
Video:
      PAL 4:3 (720x576) VBR
Audio:
      Not specified (LinearPCM, 2 ch)
Language Unit :
      Root Menu

Скриншоты:


Время раздачи: 24/7 до 5 скачавших