Вызов / Defiance [03x01-12 из 13] (2015) WEB-DL 720p | LostFilm

 
 Статистика раздачи 
Размер: 16.85 ГБ   |  Зарегистрирован: 27 авг 2015, 17:21   |   .torrent скачан: 10 раз
Сидеров: 2  [ 0 байт/сек ]     Личеров: 4  [ 0 байт/сек ]  
  

Вызов / Defiance [03x01-12 из 13] (2015) WEB-DL 720p | LostFilm

Сообщение ExaByte » 27 авг 2015, 17:21




Информация о фильме
Название: Непокорная Земля / Вызов
Оригинальное название: Defiance
Год выхода: 2015
Жанр: Фантастика, боевик, драма
Режиссер: Майкл Нанкин
В ролях: Грант Боулер, Джули Бенц, Дьюшэйн Уильямс, Тони Карран, Тренна Китинг, Стефани Леонидас, Джейми Мюррэй, Николь Муньос, Джессика Николс, Джастин Рэйн
О фильме:
Сюжет сериала "Вызов" рассказывает о Земле, какой она стала после Бледных войн: противостояния землян и прилетевших "на поселение" инопланетян, чья система бинарных солнц превратилась в сверхновую. После того, как потери с обеих сторон достигли ужасных размеров и на Землю по ошибке попали терраформирующие машины инопланетян, горстка солдат осознала бессмысленность взаимного истребления и бросает вызов своим командирам. Цепная реакция привела к перемирию между землянами и вотанцами. В начале сериала со времен объявления перемирия прошло 15 лет. Бывший солдат Джозеф Нолан со своей приемной дочкой-инопланетянкой Айриссой попадает в некогда родной Сент-Луис, и вынужденно становится защитником местных жителей на посту шерифа. Ему предстоит жить в городе, ныне носящем гордое название Вызов, населенном представителями 6 рас, и бороться с силами, пытающимися стереть его с лица Земли.


Страна: США

Продолжительность: ~ 00:43:00 серия
Перевод: Профессиональный многоголосый | LostFilm

Файл
Кодек: MPEG-4 AVC/H.264
Качество: WEB-DL 720p
Видео: 1280x720 (1.778), 23.976 fps, ~ 4000 kbps
Звук:
Аудио rus: AC-3, 48 KHz, 6 ch, 384 kbps | LostFilm
Аудио eng: AC-3, 48 KHz, 6 ch, 384 kbps | original
Субтитры: Английский

Семпл

Релиз подготовил: Skyns61
Монтаж, работа со звуком: Skyns61
Дорожка получена наложением выделенных голосов от «LostFilm» на центр оригинального AC3.

01. Мир, который мы захватим /The World We Seize
02. Последние единороги /The Last Unicorns
03. Сломанная ветвь /The Broken Bough
04. Тишина в эфире /Dead Air
05. История рифмуется /History Rhymes
06. Куда покатились яблоки /Where the Apples Fell
07. Красота нашего оружия /The Beauty of Our Weapons
08. Меня зовут Датак Тарр и я пришёл убить вас /My Name Is Datak Tarr and I Have Come to Kill You
09. Остинато в белом /Ostinato in White
10. Когда небо погаснет в сумерках /When Twilight Dims the Sky Above
11. В демона преображаясь /Of a Demon in My View
12. Пробуждение /The Awakening
Общее
Уникальный идентификатор : 235678069125189800813639410574697787890 (0xB14DF1EF36A14C73A64510E65C1171F2)
Полное имя : G:FilmsDefiance.S03.LostFilmDefiance.S03E01-02.720p.WEB-DL.LostFilm.DD5.1.mkv
Формат : Matroska
Версия формата : Version 4 / Version 2
Размер файла : 2,80 Гбайт
Продолжительность : 1 ч. 23 м.
Общий поток : 4823 Кбит/сек
Дата кодирования : UTC 2015-07-14 06:05:23
Программа кодирования : mkvmerge v8.1.0 ('Psychedelic Postcard') 64bit
Библиотека кодирования : libebml v1.3.1 + libmatroska v1.4.2
DURATION : 01:23:10.112000000
NUMBER_OF_FRAMES : 155941
NUMBER_OF_BYTES : 239525376
_STATISTICS_WRITING_APP : mkvmerge v8.1.0 ('Psychedelic Postcard') 64bit
_STATISTICS_WRITING_DATE_UTC : 2015-07-14 06:05:23
_STATISTICS_TAGS : BPS DURATION NUMBER_OF_FRAMES NUMBER_OF_BYTES

Видео
Идентификатор : 1
Формат : AVC
Формат/Информация : Advanced Video Codec
Профиль формата : High@L3.1
Параметр CABAC формата : Нет
Параметр ReFrames формата : 2 кадра
Идентификатор кодека : V_MPEG4/ISO/AVC
Продолжительность : 1 ч. 23 м.
Битрейт : 3959 Кбит/сек
Ширина : 1280 пикселей
Высота : 720 пикселей
Соотношение сторон : 16:9
Режим частоты кадров : Постоянный
Частота кадров : 23,976 кадра/сек
Цветовое пространство : YUV
Субдискретизация насыщенности : 4:2:0
Битовая глубина : 8 бит
Тип развёртки : Прогрессивная
Бит/(Пиксели*Кадры) : 0.179
Размер потока : 2,30 Гбайт (82%)
Язык : English
Default : Да
Forced : Нет
Основные цвета : BT.709
Характеристики трансфера : BT.709
Коэффициенты матрицы : BT.709
colour_range : Limited

Аудио #1
Идентификатор : 2
Формат : AC-3
Формат/Информация : Audio Coding 3
Расширение режима : CM (complete main)
Параметр Endianness формата : Big
Идентификатор кодека : A_AC3
Продолжительность : 1 ч. 23 м.
Вид битрейта : Постоянный
Битрейт : 384 Кбит/сек
Каналы : 6 каналов
Расположение каналов : Front: L C R, Side: L R, LFE
Частота : 48,0 КГц
Битовая глубина : 16 бит
Метод сжатия : С потерями
Размер потока : 228 Мбайт (8%)
Заголовок : LostFilm 5.1
Язык : Russian
Default : Да
Forced : Нет

Аудио #2
Идентификатор : 3
Формат : AC-3
Формат/Информация : Audio Coding 3
Расширение режима : CM (complete main)
Параметр Endianness формата : Big
Идентификатор кодека : A_AC3
Продолжительность : 1 ч. 23 м.
Вид битрейта : Постоянный
Битрейт : 384 Кбит/сек
Каналы : 6 каналов
Расположение каналов : Front: L C R, Side: L R, LFE
Частота : 48,0 КГц
Битовая глубина : 16 бит
Метод сжатия : С потерями
Размер потока : 228 Мбайт (8%)
Заголовок : original 5.1
Язык : English
Default : Нет
Forced : Нет

Текст
Идентификатор : 4
Формат : UTF-8
Идентификатор кодека : S_TEXT/UTF8
Идентификатор кодека/Информация : UTF-8 Plain Text
Заголовок : CC
Язык : English
Default : Нет
Forced : Нет

Когда раздача ведётся путём добавления новых серий, при каждом добавлении создётся новый торрент. Чтобы начать докачку новой серии, пользователям необходимо сделать следующее:
(1) остановить скачивание,
(2) удалить старый торрент у себя из клиента (старые серии удалять не надо),
(3) скачать новый торрент и запустить его у себя в клиенте вместо старого, при этом указать клиенту путь в старую папку, куда и должно происходить скачивание новых серий.
Ваш клиент при этом должен произвести хеширование (проверку) старой папки (если не производит сам - помогите ему сделать это), и будет докачивать только те серии, которых у вас ещё нет. Старые серии при этом не удаляются, а продолжают раздаваться!
Eсли вы уже удалили старые серии, то предотвратить повторную закачку старых серий можно, отжав галочку в соответсвующих местах при запуске нового торрента. По возможности, желательно не удалять старые серии как можно дольше, чтобы релизёр не столько продолжал раздавать старые серии, а смог сконцентрироваться на новых.


Релиз от: skyns61
 
Не забывайте говорить Спасибо. Не уходите с раздачи!   
Торрент: Зарегистрирован [27 авг 2015, 17:21] Для скачивания .torrent
необходима регистрация
Или скачать с помощью
MediaGet
Статус:
Проверен
 
.torrent скачан: 10 раз
Хэш: ec29c68a1a314bf88b4d59996a0a38943d60e7d9
Размер: 16.85 ГБ (18 089 954 450 байт)
Стать Автором раздачи
 
 
Раздал: 2.54 ГБ
Скачал: 0 байт
Ратио: Seed.
Сообщения: 236702
Зарегистрирован: 05 июл 2013, 10:11


  • Похожие торренты
    Ответы
    Просмотры
    Последнее сообщение

Вернуться в Сериалы

Ресурс не предоставляет электронные версии произведений, а занимается лишь коллекционированием и каталогизацией ссылок, присылаемых и публикуемых на форуме нашими читателями. Если вы являетесь правообладателем какого-либо представленного материала и не желаете чтобы ссылка на него находилась в нашем каталоге, свяжитесь с нами и мы незамедлительно удалим её. Файлы для обмена на трекере предоставлены пользователями сайта, и администрация не несёт ответственности за их содержание. Просьба не заливать файлы, защищенные авторскими правами, а также файлы нелегального содержания!
cron