Da Vinci Learning: Плазма: новая заря / Plasma. Ultimate Aurora (2013) SATRip

 
 Статистика раздачи 
Размер: 715.96 МБ   |  Зарегистрирован: 23 авг 2015, 23:50   |   .torrent скачан: 6 раз
Сидеров: 4  [ 0 байт/сек ]     Личеров: 0  [ 0 байт/сек ]  
  

Da Vinci Learning: Плазма: новая заря / Plasma. Ultimate Aurora (2013) SATRip

Сообщение Seepas » 23 авг 2015, 23:50

Da Vinci Learning: Плазма: новая заря / Plasma. Ultimate Aurora (2013) SATRip

Телекомпания: TLP and ABC4Explore
Жанр: Документальный
Режиссер: Энди Касагранд / Andy Casagrande, Томас Лукас / Thomas Lucas

Описание:
В этом фильме Бен Лонгмайер отправляется на Аляску, чтобы найти способ построить совершенно новый тип реактивного двигателя, который кардинально изменит полеты в космос при помощи использования динамического четвертого состояния вещества: плазмы.

Продолжительность: 00:50:09
Качество видео: SATRip

Перевод: Одноголосый закадровый, профессиональный



Видео: Xvid, 720x400, ~1800 Kbps
Аудио: AC3, 2 ch, 192 kbps
Код:
Код: Выделить всё
Format : AVI
Format/Info : Audio Video Interleave
File size : 716 MiB
Duration : 50mn 9s
Overall bit rate : 1 996 Kbps
Writing application : TMPGEnc Video Mastering Works 5 Version. 5.0.6.38
Writing library : TMPGEnc Video Mastering Works 5 Version. 5.0.6.38

Video
ID : 0
Format : MPEG-4 Visual
Format profile : Advanced [email protected]
Format settings, BVOP : 2
Format settings, QPel : No
Format settings, GMC : No warppoints
Format settings, Matrix : Default (H.263)
Muxing mode : Packed bitstream
Codec ID : XVID
Codec ID/Hint : XviD
Duration : 50mn 9s
Bit rate : 1 796 Kbps
Width : 720 pixels
Height : 400 pixels
Display aspect ratio : 16:9
Frame rate : 25.000 fps
Color space : YUV
Chroma subsampling : 4:2:0
Bit depth : 8 bits
Scan type : Progressive
Compression mode : Lossy
Bits/(Pixel*Frame) : 0.249
Stream size : 644 MiB (90%)
Writing library : XviD 73

Audio
ID : 1
Format : AC-3
Format/Info : Audio Coding 3
Mode extension : CM (complete main)
Format settings, Endianness : Big
Codec ID : 2000
Duration : 50mn 9s
Bit rate mode : Constant
Bit rate : 192 Kbps
Channel(s) : 2 channels
Channel positions : Front: L R
Sampling rate : 48.0 KHz
Compression mode : Lossy
Stream size : 68.9 MiB (10%)
Alignment : Aligned on interleaves
Interleave, duration : 240 ms (6.00 video frames)
Interleave, preload duration : 224 ms

Скриншоты:


Время раздачи: 24/7
 
Не забывайте говорить Спасибо. Не уходите с раздачи!   
Торрент: Зарегистрирован [23 авг 2015, 23:50] Для скачивания .torrent
необходима регистрация
Или скачать с помощью
MediaGet
Статус:
Проверен
 
.torrent скачан: 6 раз
Хэш: d13e98d278c3c1552e7159c1cdd1db640d6a56ca
Размер: 715.96 МБ (750 737 914 байт)
Стать Автором раздачи
 
 
Раздал: 0 байт
Скачал: 0 байт
Ратио: Inf.
Сообщения: 188877
Зарегистрирован: 14 июн 2014, 20:46


  • Похожие торренты
    Ответы
    Просмотры
    Последнее сообщение

Вернуться в Da Vinci Learning

Кто сейчас на конференции

Сейчас эту тему просматривают: нет зарегистрированных пользователей и гости: 1

Ресурс не предоставляет электронные версии произведений, а занимается лишь коллекционированием и каталогизацией ссылок, присылаемых и публикуемых на форуме нашими читателями. Если вы являетесь правообладателем какого-либо представленного материала и не желаете чтобы ссылка на него находилась в нашем каталоге, свяжитесь с нами и мы незамедлительно удалим её. Файлы для обмена на трекере предоставлены пользователями сайта, и администрация не несёт ответственности за их содержание. Просьба не заливать файлы, защищенные авторскими правами, а также файлы нелегального содержания!