Крик совы [01-10 из 10] (2013) WEB-DLRip от Generalfilm

 
 Статистика раздачи 
Размер: 4.36 ГБ   |  Зарегистрирован: 23 авг 2015, 11:59   |   .torrent скачан: 228 раз
Сидеров: 349  [ 0 байт/сек ]     Личеров: 115  [ 0 байт/сек ]  
  

Крик совы [01-10 из 10] (2013) WEB-DLRip от Generalfilm

Сообщение ExaByte » 23 авг 2015, 11:59

Информация о фильме
Оригинальное название: Крик совы / Особые полномочия
Год выпуска: 2013
Жанр: Детектив
Режиссер: Олег Погодин
В ролях: Сергей Пускепалис, Андрей Мерзликин, Мария Миронова, Евгений Дятлов, Андрей Феськов, Анатолий Васильев, Игорь Савочкин, Серафима Низовская, Василий Бочкарёв, Сергей Юшкевич, Наталья Высочанская, Александр Марушев, Евгения Дмитриева, Эрнст Романов, Эра Зиганшина, Евгений Ганелин, Николай Харитонов, Владимир Матвеев, Анна Уколова, Олег Алмазов, Александр Нестеров, Наталья Данилова, Аркадий Волгин, Сергей Барковский, Наталья Ткаченко, Анатолий Горин, Геннадий Алимпиев и др.

О фильме: 1957 год, время хрущевской "оттепели". Городок Остров Псковской области сотрясает череда дерзких преступлений. При стычке бандитов с правоохранительными органами тяжело ранен один из лучших сотрудников местной милиции – капитан Юрий Сиротин. В бессознательном состоянии он разговаривает по-немецки, что приводит к служебному расследованию, которое поручено вести сотруднику областного ГБ Ивану Митину. В Острове ему приходится взаимодействовать с майором милиции Андреем Балахниным – лучшим другом подозреваемого Сиротина. Балахнин и Митин, не слишком симпатизирующие друг другу, влюбляются в одну женщину – работницу почты Нину. Расследование вытаскивает на свет множество мучительных тайн, которыми пронизана жизнь обитателей Острова со времен войны.

Страна: Россия
Студия: "Щука", ФАБЕРЖЕ ПРОДАКШН
Продолжительность: 10 х ~00:51:30
Перевод: Не требуется

Файл
Формат: avi
Качество: WEB-DLRip
Видео: XviD, 688x384, ~1060 kbps, 25.000 fps
Аудио: MP3, 44.1 KHz, 2 ch, 128 Kbps

Общее
Полное имя : D:Kinozal.TVKrik.Sovy.2013.XviD.WEB-DLRip.by.GeneralFilm1.seriya.avi
Формат : AVI
Формат/Информация : Audio Video Interleave
Размер файла : 446 Мбайт
Продолжительность : 51 м.
Общий поток : 1198 Кбит/сек
Программа кодирования : VirtualDubMod 1.5.10.3 | www.virtualdub-fr.org || (build 2550/release)
Библиотека кодирования : VirtualDubMod build 2550/release

Видео
Идентификатор : 0
Формат : MPEG-4 Visual
Профиль формата : Advanced Simple@L5
Параметр BVOP формата : 1
Параметр QPel формата : Нет
Параметр GMC формата : Без точки перехода
Параметр матрицы формата : Выборочная
Идентификатор кодека : XVID
Идентификатор кодека/Подсказка : XviD
Продолжительность : 51 м.
Битрейт : 1061 Кбит/сек
Ширина : 688 пикселей
Высота : 384 пикселя
Соотношение сторон : 16:9
Частота кадров : 25,000 кадров/сек
Цветовое пространство : YUV
Субдискретизация насыщенности : 4:2:0
Битовая глубина : 8 бит
Тип развёртки : Прогрессивная
Метод сжатия : С потерями
Бит/(Пиксели*Кадры) : 0.161
Размер потока : 394 Мбайт (89%)
Библиотека кодирования : XviD 73

Аудио
Идентификатор : 1
Формат : MPEG Audio
Версия формата : Version 1
Профиль формата : Layer 3
Идентификатор кодека : 55
Идентификатор кодека/Подсказка : MP3
Продолжительность : 51 м.
Вид битрейта : Постоянный
Битрейт : 128 Кбит/сек
Каналы : 2 канала
Частота : 44,1 КГц
Метод сжатия : С потерями
Размер потока : 47,6 Мбайт (11%)
Выравнивание : Разделение по промежуткам
Продолжительность промежутка : 40 мс. (1,00 видеокадр)
Время предзагрузки промежутка : 500 мс.
Библиотека кодирования : LAME3.99r
Настройки программы : -m s -V 4 -q 0 -lowpass 17 -b 128









Релиз от:
 
Не забывайте говорить Спасибо. Не уходите с раздачи!   
Торрент: Зарегистрирован [23 авг 2015, 11:59] Для скачивания .torrent
необходима регистрация
Или скачать с помощью
MediaGet
Статус:
Проверен
 
.torrent скачан: 228 раз
Хэш: 13210db27ce0a52fd8d07afbfe2f568238868acf
Размер: 4.36 ГБ (4 678 322 176 байт)
Стать Автором раздачи
 
 
Раздал: 2.54 ГБ
Скачал: 0 байт
Ратио: Seed.
Сообщения: 236702
Зарегистрирован: 05 июл 2013, 10:11


  • Похожие торренты
    Ответы
    Просмотры
    Последнее сообщение

Вернуться в Сериалы

Ресурс не предоставляет электронные версии произведений, а занимается лишь коллекционированием и каталогизацией ссылок, присылаемых и публикуемых на форуме нашими читателями. Если вы являетесь правообладателем какого-либо представленного материала и не желаете чтобы ссылка на него находилась в нашем каталоге, свяжитесь с нами и мы незамедлительно удалим её. Файлы для обмена на трекере предоставлены пользователями сайта, и администрация не несёт ответственности за их содержание. Просьба не заливать файлы, защищенные авторскими правами, а также файлы нелегального содержания!
cron