Звездный крейсер Галактика + Каприка / Battlestar Galactica + Caprica (2004-2010) BDRip/WEB-DLRip [H.264] LostFilm [MP4|1280x720] [полная коллекция]

 
 Статистика раздачи 
Размер: 125.93 ГБ   |  Зарегистрирован: 20 авг 2015, 14:10   |   .torrent скачан: 0 раз
Сидеров: 1  [ 0 байт/сек ]     Личеров: 0  [ 0 байт/сек ]  
  

Звездный крейсер Галактика + Каприка / Battlestar Galactica + Caprica (2004-2010) BDRip/WEB-DLRip [H.264] LostFilm [MP4|1280x720] [полная коллекция]

Сообщение BitFire » 20 авг 2015, 14:10

Звездный крейсер Галактика + Каприка / Battlestar Galactica + Caprica (2004-2010)
BDRip/WEB-DLRip [720p] LostFilm (полная коллекция)
«The world is over. The fight has just begun» / «The end of humanity has a beginning...»

Производство: США, Великобритания
Жанр: фантастика

Режиссер: Майкл Раймер, Рональд Д. Мур, Марита Грабиак, Аллан Кроекер и др.
Актеры: Эдвард Джеймс Олмос, Мери МакДоннелл, Кати Сакхофф, Джейми Бамбер, Джеймс Кейллис, Трисиа Хелфер, Грэйс Парк и др.

Описание:
Чудом уцелев после нападения Сайлонов на колонии Кобола, гражданский колониальный флот в сопровождении Звёздного крейсера Галактика летит прочь от мест, где их могут найти вражеские силы. Восстановив гражданское правительство и собрав все имеющиеся силы, остатки человечества начинают неравную борьбу со временем, обстоятельствами и Сайлонами. Разбираясь с всё новыми внешними и внутренними проблемами, постепенно раскрывая личности 12 человекоподобных моделей Сайлонов, они летят на поиски давно потерянной 13 колонии Кобола, упоминания о которой есть в древних сказаниях, нового дома, имя которому — Земля.

Каприка. Административный центр Двенадцати Колоний Кобола. Планета, где есть всё - богатство, успех, технологии и развлечения. Планета, которая будет разрушена ровно через 58 лет. Авторы сериала "Звёздный крейсер "Галактика" дают нам возможность увидеть - что же происходило в самом начале, когда Сайлоны были созданы Человеком.

+ / + /

Продолжительность: ~00:44:00 серия
Качество видео: BDRip 720p | WEB-DLRip 720p (сериал "Каприка")
Перевод: Многоголосый закадровый, профессиональный - LostFilm
Озвучка: Студия «LostFilm»

Видео: AVC/H.264, 1280x720 (16:9), ~3750 Кбит/сек
Аудио: AAC, 2 канала, 160 Кбит/сек - русский (многоголосый закадровый, LostFilm)
Код:
Код: Выделить всё
Полное имя                               : D:\Battlestar_Galactica_(Full_collection)_BDRip720p_x264_LostFilm_[NNM-Club]\Звездный крейсер Галактика - Кровь и Хром.mp4
Формат                                   : MPEG-4
Профиль формата                          : Base Media
Идентификатор кодека                     : isom
Размер файла                             : 2,44 Гбайт
Продолжительность                        : 1 ч. 29 м.
Общий поток                              : 3914 Кбит/сек
Название фильма                          : Звездный крейсер Галактика - Кровь и Хром

Видео
Идентификатор                            : 1
Формат                                   : AVC
Формат/Информация                        : Advanced Video Codec
Профиль формата                          :
Параметр CABAC формата                   : Да
Параметр ReFrames формата                : 4 кадра
Идентификатор кодека                     : avc1
Идентификатор кодека/Информация          : Advanced Video Coding
Продолжительность                        : 1 ч. 29 м.
Битрейт                                  : 3750 Кбит/сек
Ширина                                   : 1280 пикселей
Высота                                   : 720 пикселей
Соотношение сторон                       : 16:9
Режим частоты кадров                     : Постоянный
Частота кадров                           : 23,976 кадра/сек
Цветовое пространство                    : YUV
Субдискретизация насыщенности            : 4:2:0
Битовая глубина                          : 8 бит
Тип развёртки                            : Прогрессивная
Бит/(Пиксели*Кадры)                      : 0.170
Размер потока                            : 2,34 Гбайт (96%)
Библиотека кодирования                   : x264 core 146 r2538M 121396c
Настройки программы                      : cabac=1 / ref=4 / deblock=1:-2:-2 / analyse=0x3:0x133 / me=hex / subme=7 / psy=1 / psy_rd=1,00:0,20 / mixed_ref=1 / me_range=16 / chroma_me=1 / trellis=1 / 8x8dct=1 / cqm=0 / deadzone=21,11 / fast_pskip=1 / chroma_qp_offset=-3 / threads=16 / lookahead_threads=2 / sliced_threads=0 / nr=0 / decimate=1 / interlaced=0 / bluray_compat=0 / constrained_intra=0 / bframes=0 / weightp=2 / keyint=230 / keyint_min=23 / scenecut=0 / intra_refresh=0 / rc_lookahead=230 / rc=2pass / mbtree=1 / bitrate=3750 / ratetol=1,0 / qcomp=0,60 / qpmin=10 / qpmax=51 / qpstep=4 / cplxblur=20,0 / qblur=0,5 / vbv_maxrate=11250 / vbv_bufsize=11250 / nal_hrd=none / filler=0 / ip_ratio=1,40 / aq=1:1,00
Основные цвета                           : BT.709
Характеристики трансфера                 : BT.709
Коэффициенты матрицы                     : BT.709

Аудио
Идентификатор                            : 2
Формат                                   : AAC
Формат/Информация                        : Advanced Audio Codec
Профиль формата                          : LC
Идентификатор кодека                     : 40
Продолжительность                        : 1 ч. 29 м.
Вид битрейта                             : Постоянный
Битрейт                                  : 160 Кбит/сек
Каналы                                   : 2 канала
Расположение каналов                     : Front: L R
Частота                                  : 48,0 КГц
Метод сжатия                             : С потерями
Размер потока                            : 102 Мбайт (4%)
Язык                                     : Russian


Код:
Код: Выделить всё
Полное имя                               : D:\Battlestar_Galactica_(Full_collection)_BDRip720p_x264_LostFilm_[NNM-Club]\Сезон 1\Звездный крейсер Галактика 01-01.mp4
Формат                                   : MPEG-4
Профиль формата                          : Base Media
Идентификатор кодека                     : isom
Размер файла                             : 1,17 Гбайт
Продолжительность                        : 42 м.
Общий поток                              : 3903 Кбит/сек
Название фильма                          : Звездный крейсер Галактика 01-01_1

Видео
Идентификатор                            : 1
Формат                                   : AVC
Формат/Информация                        : Advanced Video Codec
Профиль формата                          :
Параметр CABAC формата                   : Да
Параметр ReFrames формата                : 4 кадра
Идентификатор кодека                     : avc1
Идентификатор кодека/Информация          : Advanced Video Coding
Продолжительность                        : 42 м.
Битрейт                                  : 3750 Кбит/сек
Ширина                                   : 1280 пикселей
Высота                                   : 720 пикселей
Соотношение сторон                       : 16:9
Режим частоты кадров                     : Постоянный
Частота кадров                           : 23,976 кадра/сек
Цветовое пространство                    : YUV
Субдискретизация насыщенности            : 4:2:0
Битовая глубина                          : 8 бит
Тип развёртки                            : Прогрессивная
Бит/(Пиксели*Кадры)                      : 0.170
Размер потока                            : 1,12 Гбайт (96%)
Библиотека кодирования                   : x264 core 146 r2538M 121396c
Настройки программы                      : cabac=1 / ref=4 / deblock=1:-2:-2 / analyse=0x3:0x133 / me=hex / subme=7 / psy=1 / psy_rd=1,00:0,20 / mixed_ref=1 / me_range=16 / chroma_me=1 / trellis=1 / 8x8dct=1 / cqm=0 / deadzone=21,11 / fast_pskip=1 / chroma_qp_offset=-3 / threads=16 / lookahead_threads=2 / sliced_threads=0 / nr=0 / decimate=1 / interlaced=0 / bluray_compat=0 / constrained_intra=0 / bframes=0 / weightp=2 / keyint=230 / keyint_min=23 / scenecut=0 / intra_refresh=0 / rc_lookahead=230 / rc=2pass / mbtree=1 / bitrate=3750 / ratetol=1,0 / qcomp=0,60 / qpmin=10 / qpmax=51 / qpstep=4 / cplxblur=20,0 / qblur=0,5 / vbv_maxrate=11250 / vbv_bufsize=11250 / nal_hrd=none / filler=0 / ip_ratio=1,40 / aq=1:1,00
Основные цвета                           : BT.709
Характеристики трансфера                 : BT.709
Коэффициенты матрицы                     : BT.709

Аудио
Идентификатор                            : 2
Формат                                   : AAC
Формат/Информация                        : Advanced Audio Codec
Профиль формата                          : LC
Идентификатор кодека                     : 40
Продолжительность                        : 42 м.
Вид битрейта                             : Постоянный
Битрейт                                  : 160 Кбит/сек
Каналы                                   : 2 канала
Расположение каналов                     : Front: L R
Частота                                  : 48,0 КГц
Метод сжатия                             : С потерями
Размер потока                            : 49,2 Мбайт (4%)
Язык                                     : Russian
]
01. Каприка (Caprica).
02. Второе рождение (Rebirth).
03. Укрощение водопада (Reins of a Waterfall).
04. Пляски на могиле (Gravedancing).
05. Другое небо (There Is Another Sky).
06. Знай своего врага (Know Thy Enemy).
07. Несовершенство памяти (The Imperfections of Memory).
08. Призраки в машине (Ghosts in the Machine).
09. Конец строки (End of Line).
10. Непобежденный (Unvanquished).
11. Расплата (Retribution).
12. То, что мы прячем (Things We Lock Away).
13. Подготовительные родовые схватки (False Labor).
14. Отдача (Blowback).
15. Грязееды (The Dirteaters).
16. И возвысятся небеса (The Heavens Will Rise).
17. Да будут драконы! (Here Be Dragons).
18. Апофеоз (Apotheosis).
01. Тридцать три. (33).
02. Вода (Water).
03. День взятия Бастилии (Bastille Day).
04. Жест раскаяния (Act of Contrition).
05. Домой ты больше не вернёшься. (You Can't Go Home Again).
06. Лакмус (Litmus).
07. Шесть степеней расставания (Six Degreеs of Separation).
08. Плоть и кости (Flesh and Bone).
09. СпуТАЙ меня, запуТАЙ меня. (Tigh Me Up Tigh Me Down).
10. Рука Божья (Hand of God).
11. День Колоний (Colonial Day).
12. Последнее сияние Кобола, часть 1 (Kobol's Last Gleamin', part 1).
13. Последнее сияние Кобола, часть 2 (Kobol's Last Gleamin', part 2).
01. Разделённые (Scattered).
02. Долина тьмы (Valley of Darkness).
03. Испытание властью (Fragged).
04. Сопротивление (Resistance).
05. Ферма (The Farm).
06. Дом. Часть 1 (Home. Part 1).
07. Дом. Часть 2 (Home. Part 2).
08. Окончательный монтаж (Final Cut).
09. Полёт Феникса (Flight of the Phoenix).
10. Пегас (Pegasus).
11. Корабль воскрешения. Часть 1 (Resurrection Ship. Part 1).
12. Корабль воскрешения. Часть 2 (Resurrection Ship. Part 2).
13. Прозрения (Epiphanies).
14. Чёрный рынок (Black Market).
15. Шрам (Scar).
16. Жертва (Sacrifice).
17. Рука капитана (The Captain’s Hand).
18. Скачено (Downloaded).
19. Сбрось своё бремя. Часть 1 (Lay Down Your Burden. Part 1).
20. Сбрось своё бремя. Часть 2 (Lay Down Your Burden. Part 2).
01. Оккупация (Occupation).
02. Провал (Precipice).
03. Исход: Часть 1 (Exodus: Part 1).
04. Исход: Часть 2 (Exodus: Part 2).
05. Пособники (Collaborators).
06. Раскол (Torn).
07. Цена спасения (A Measure of Salvation).
08. Герой (Hero).
09. Неоконченные дела (Unfinished Business).
10. The Passage.
11. Глаз Юпитера (The Eye of Jupiter).
12. Вознесение (Rapture).
13. Takin' a Break from All Your Worries.
14. Женщина по имени Кинг (The Woman King).
15. Один день из жизни (A Day In The Life).
16. Dirty Hands.
17. Водоворот (Maelstrom).
18. Сын выходит из тени (The Son Also Rises).
19. Перекрёстки: часть 1 (Crossroads: Part 1).
20. Перекрёстки: часть 2 (Crossroads: Part 2).
01. Верующий в меня (He That Believeth in Me).
02. Равенство противоречий (Six of One).
03. То, что нас связывает (The Ties That Bind).
04. Момент отрыва (Escape Velocity).
05. Неизбранный путь (The Road Less Travelled).
06. Вера (Faith).
07. Посмотрите, кто пришел (Guess What's Coming to Dinner).
08. Sine Qua Non (Без чего нет).
09. Узел (The Hub).
10. Откровения (Revelations).
11. Иногда так и хочется (Sometimes a Great Notion).
12. И нет душе покоя (A Disquiet Follows My Soul).
13. Присяга (The Oath).
14. Кровь на чаше весов (Blood on the Scales).
15. За запертой дверью (No Exit).
16. Тупик (Deadlock).
17. Тот, кто меня бережёт (Someone to Watch Over Me).
18. Затерянные среди звёзд (Islanded in a Stream of Stars).
19. Рассвет: часть 1 (Daybreak: Part 1).
20. Рассвет: часть 2 (Daybreak: Part 2).
Административный центр Двенадцати Колоний Кобола. Планета, где есть всё - богатство, успех, технологии и развлечения. Планета, которая будет разрушена ровно через 58 лет. Авторы сериала "Звёздный крейсер "Галактика" дают нам возможность увидеть - что же происходило в самом начале, когда Сайлоны были созданы Человеком.
01. Минисериал (2 серии).
02. Документальный фильм "Как создавался сериал".
03. Документальный фильм "О сериале".
04. Первый сезон (13 серий).
05. Второй сезон (20 серий).
06. Вебизоды "Сопротивление"
07. Третий сезон (20 серий).
08. Видео-клип "Мифология".
09. Вебизоды "Лезвие - Ретроспекция".
10. Фильм "Лезвие".
11. Документальный фильм "Разоблачение".
12. Четвертый сезон (1-11 серии).
13. Вебизоды "Лицо врага".
14. Четвертый сезон (12-15 серии).
15. Фильм "План".
16. Четвертый сезон (16-20 серии).
17. Фильм "Кровь и Хром".

Скриншоты:




Время раздачи:
24/7 - круглосуточно
(до первых 5-ти сидов - потом по возможности)

 
Не забывайте говорить Спасибо. Не уходите с раздачи!   
Торрент: Зарегистрирован [20 авг 2015, 14:10] Для скачивания .torrent
необходима регистрация
Или скачать с помощью
MediaGet
Статус:
Проверен
 
.torrent скачан: 0 раз
Хэш: 0cf4c4f3b77e3eabdaf47f359767464e66f7eeae
Размер: 125.93 ГБ (135 219 318 499 байт)
Стать Автором раздачи
 
 
Раздал: 398.6 ГБ
Скачал: 172 МБ
Ратио: 2373.085
Сообщения: 228130
Зарегистрирован: 17 апр 2014, 15:26


  • Похожие торренты
    Ответы
    Просмотры
    Последнее сообщение

Вернуться в Видео для мобильных устройств

Ресурс не предоставляет электронные версии произведений, а занимается лишь коллекционированием и каталогизацией ссылок, присылаемых и публикуемых на форуме нашими читателями. Если вы являетесь правообладателем какого-либо представленного материала и не желаете чтобы ссылка на него находилась в нашем каталоге, свяжитесь с нами и мы незамедлительно удалим её. Файлы для обмена на трекере предоставлены пользователями сайта, и администрация не несёт ответственности за их содержание. Просьба не заливать файлы, защищенные авторскими правами, а также файлы нелегального содержания!
cron