Золушка / Cinderella (2015) BDRip [H.264] [MP4|1280x552]

 
 Статистика раздачи 
Размер: 2.85 ГБ   |  Зарегистрирован: 15 авг 2015, 01:05   |   .torrent скачан: 0 раз
Сидеров: 1  [ 0 байт/сек ]     Личеров: 1  [ 0 байт/сек ]  
  

Золушка / Cinderella (2015) BDRip [H.264] [MP4|1280x552]

Сообщение Nakazhu » 15 авг 2015, 01:05

Золушка / Cinderella (2015) BDRip
«Midnight is just the beginning»

Производство: США, Allison Shearmur Productions, Beagle Pug Films, Genre Films
Жанр: Фэнтези, Драма, Мелодрама

Режиссер: Кеннет Брана
Актеры: Лили Джеймс, Кейт Бланшетт, Ричард Мэдден, Хелена Бонем Картер ,Нонсо Анози, Стеллан Скарсгард, Софи МакШера, Холлидей Грейнджер, Дерек Джекоби, Бен Чаплин

Описание:
Отец молодой девушки по имени Элла, овдовев, женится во второй раз, и вскоре Элла оказывается один на один с жадными и завистливыми новыми родственницами — мачехой Леди Тремэйн и ее дочерьми — Анастасией и Дризеллой. Из хозяйки дома она превращается в служанку, вечно испачканную золой, за что и получает от своих сварливых сводных сестриц прозвище — Золушка. Несмотря на злоключения, выпавшие на ее долю, Золушка не отчаивается, ведь даже в самые тяжелые моменты находится что-то, что помогает ей думать о хорошем: например, случайная встреча на лесной тропинке с прекрасным юношей. Элла даже не предполагает, что встретилась с самим принцем, и что вскоре Фея-крестная навсегда поменяет её жизнь к лучшему.



Продолжительность: 01:45:22
Качество видео: BDRip 720p
Перевод: Дублированный (Blu-ray Disc [EUR])

Видео: AVC/H.264, 1280x552 (16:9), ~3550 Кбит/сек
Аудио #1: AAC, 2 канала, 160 Кбит/сек - русский (дублированный)
Аудио #2: AAC, 2 канала, 160 Кбит/сек - английский (оригинальный)
Код:
Код: Выделить всё
Полное имя                               : E:\Video\MP4 640x360\[nnm-club]_Cinderella_2015_BDRip720p_x264.mp4
Формат                                   : MPEG-4
Профиль формата                          : Base Media
Идентификатор кодека                     : isom
Размер файла                             : 2,85 Гбайт
Продолжительность                        : 1 ч. 45 м.
Общий поток                              : 3878 Кбит/сек
Программа кодирования                    : XviD4PSP 7.0.129

Видео
Идентификатор                            : 1
Формат                                   : AVC
Формат/Информация                        : Advanced Video Codec
Профиль формата                          :
Параметр CABAC формата                   : Да
Параметр ReFrames формата                : 5 кадров
Идентификатор кодека                     : avc1
Идентификатор кодека/Информация          : Advanced Video Coding
Продолжительность                        : 1 ч. 45 м.
Битрейт                                  : 3550 Кбит/сек
Ширина                                   : 1280 пикселей
Высота                                   : 552 пикселя
Соотношение сторон                       : 2,35:1
Режим частоты кадров                     : Постоянный
Частота кадров                           : 23,976 кадра/сек
Цветовое пространство                    : YUV
Субдискретизация насыщенности            : 4:2:0
Битовая глубина                          : 8 бит
Тип развёртки                            : Прогрессивная
Бит/(Пиксели*Кадры)                      : 0.210
Размер потока                            : 2,61 Гбайт (92%)
Библиотека кодирования                   : x264 core 146 r2538M 121396c
Настройки программы                      : cabac=1 / ref=5 / deblock=1:-1:-1 / analyse=0x3:0x133 / me=hex / subme=7 / psy=1 / psy_rd=1,00:0,20 / mixed_ref=1 / me_range=16 / chroma_me=1 / trellis=1 / 8x8dct=1 / cqm=0 / deadzone=21,11 / fast_pskip=1 / chroma_qp_offset=-3 / threads=20 / lookahead_threads=3 / sliced_threads=0 / nr=0 / decimate=1 / interlaced=0 / bluray_compat=0 / constrained_intra=0 / bframes=0 / weightp=2 / keyint=230 / keyint_min=23 / scenecut=0 / intra_refresh=0 / rc_lookahead=230 / rc=2pass / mbtree=1 / bitrate=3550 / ratetol=1,0 / qcomp=0,60 / qpmin=10 / qpmax=51 / qpstep=4 / cplxblur=20,0 / qblur=0,5 / vbv_maxrate=11250 / vbv_bufsize=11250 / nal_hrd=none / filler=0 / ip_ratio=1,40 / aq=1:1,00

Аудио #1
Идентификатор                            : 2
Формат                                   : AAC
Формат/Информация                        : Advanced Audio Codec
Профиль формата                          : LC
Идентификатор кодека                     : 40
Продолжительность                        : 1 ч. 45 м.
Вид битрейта                             : Постоянный
Битрейт                                  : 160 Кбит/сек
Каналы                                   : 2 канала
Расположение каналов                     : Front: L R
Частота                                  : 48,0 КГц
Метод сжатия                             : С потерями
Размер потока                            : 121 Мбайт (4%)
Язык                                     : Russian

Аудио #2
Идентификатор                            : 3
Формат                                   : AAC
Формат/Информация                        : Advanced Audio Codec
Профиль формата                          : LC
Идентификатор кодека                     : 40
Продолжительность                        : 1 ч. 45 м.
Вид битрейта                             : Постоянный
Битрейт                                  : 160 Кбит/сек
Каналы                                   : 2 канала
Расположение каналов                     : Front: L R
Частота                                  : 48,0 КГц
Метод сжатия                             : С потерями
Размер потока                            : 121 Мбайт (4%)
Язык                                     : English
• В фильме сестры Анастасия и Дризелла всегда одеты в одинаковые по фасону, но разные по цвету платья, так же как и в одноименном анимационном фильме Disney.
• На создание платья для Феи-Крёстной у художницы по костюмам Сэнди Пауэлл ушло:
120 метров ткани;
400 светодиодов;
тысячи кристаллов Swarovski.
Ширина платья составила почти 120 сантиметров.
• На пошив платья Золушки ушло более 240 метров ткани и 10 000 кристаллов Swarovski, а также было сделано более 4800 метров стежков. Для съемок фильма было изготовлено 9 абсолютно одинаковых платьев.
• Главная роль предлагалась Эмме Уотсон, но она отказалась.
• Первоначально режиссером фильма был назначен Марк Романек, но он выбыл из проекта в связи с творческими разногласиями.
• На роль Золушки рассматривались Сирша Ронан, Алисия Викандер, Имоджен Путс и Габриэлла Уайлд.
• При работе над замком и бальной залой Данте Ферретти использовал различные архитектурные стили из разных эпох и локаций, по большей части – элементы стилей европейской архитектуры XVI, XVII и XVIII веков. Зал получился огромным – 45 метров в длину и 32 метра в ширину. Он занял целиком весь седьмой павильон студии Pinewood. Интерьер был роскошным:
мраморные полы;
массивная лестница;
шторы, на пошив которых ушло более чем 1800 метров ткани;
17 огромных люстр, изготовленных на заказ в Италии;
более 3600 метров бирюзового бархата для обивки стен;
более 16 000 искусственных цветов из шёлка,
а также 5000 свечей, каждая из которых была изготовлена вручную.
• Фильм снимался в павильонах английской студии Pinewood Studios и на различных натурных площадках в Англии.

Скриншоты:




Время раздачи:
24/7 - круглосуточно
(до первых 5-ти сидов - потом по возможности)
 
Не забывайте говорить Спасибо. Не уходите с раздачи!   
Торрент: Зарегистрирован [15 авг 2015, 01:05] Для скачивания .torrent
необходима регистрация
Или скачать с помощью
MediaGet
Статус:
Проверен
 
.torrent скачан: 0 раз
Хэш: fb530afe741294c40f163c05e08dd80ac7fc751b
Размер: 2.85 ГБ (3 064 503 187 байт)
Стать Автором раздачи
 
 
Раздал: 0 байт
Скачал: 0 байт
Ратио: Inf.
Сообщения: 357821
Зарегистрирован: 17 апр 2014, 13:57


  • Похожие торренты
    Ответы
    Просмотры
    Последнее сообщение

Вернуться в Видео для мобильных устройств

Ресурс не предоставляет электронные версии произведений, а занимается лишь коллекционированием и каталогизацией ссылок, присылаемых и публикуемых на форуме нашими читателями. Если вы являетесь правообладателем какого-либо представленного материала и не желаете чтобы ссылка на него находилась в нашем каталоге, свяжитесь с нами и мы незамедлительно удалим её. Файлы для обмена на трекере предоставлены пользователями сайта, и администрация не несёт ответственности за их содержание. Просьба не заливать файлы, защищенные авторскими правами, а также файлы нелегального содержания!
cron