Аркадий Кобяков - Сборник видеоклипов (2014) WEBRip [H.264/720p]

 
 Статистика раздачи 
Размер: 376.95 МБ   |  Зарегистрирован: 12 авг 2015, 15:14   |   .torrent скачан: 0 раз
Сидеров: 1  [ 0 байт/сек ]     Личеров: 0  [ 0 байт/сек ]  
  

Аркадий Кобяков - Сборник видеоклипов (2014) WEBRip [H.264/720p]

Сообщение Thelver1947 » 12 авг 2015, 15:14

Аркадий Кобяков - Сборник видеоклипов (2014) WEBRip

Производство: Россия
Жанр: Музыка, клипы

Треклист:
01. Всё позади
02. Мерцание звёзд
03. Некуда бежать
04. Я не забуду
05. Ветерок
06. Я лишь прохожий
07. Если любишь ты

Продолжительность: 00:30:19
Качество видео: WEBRip
Перевод: Отсутствует
Cубтитры: нет

Видео: MPEG-4/AVC/H.264, 1280x720 (16:9), 23.976 fps, ~1606 kbps avg, 0.073 bit/pixel
Аудио: AAC, 2 ch, 192 kbps, CBR
Код:
Код: Выделить всё
Общее
Полное имя                               : \Аркадий КОБЯКОВ - Видеоклипы\01. Аркадий КОБЯКОВ - Всё позади.mp4
Формат                                   : MPEG-4
Профиль формата                          : Base Media / Version 2
Идентификатор кодека                     : mp42
Размер файла                             : 42,9 Мбайт
Продолжительность                        : 3 м. 19 с.
Режим общего битрейта                    : Переменный
Общий поток                              : 1800 Кбит/сек
Дата кодирования                         : UTC 2015-05-17 03:35:19
Дата пометки                             : UTC 2015-05-17 03:35:19
gsst                                     : 0
gstd                                     : 199760
gssd                                     : B4E257046HM1436039211067919
gshh                                     : r3---sn-gvnuxaxjvh-5gie.googlevideo.com

Видео
Идентификатор                            : 1
Формат                                   : AVC
Формат/Информация                        : Advanced Video Codec
Профиль формата                          :
Параметр CABAC формата                   : Да
Параметр ReFrames формата                : 1 кадр
Идентификатор кодека                     : avc1
Идентификатор кодека/Информация          : Advanced Video Coding
Продолжительность                        : 3 м. 19 с.
Битрейт                                  : 1606 Кбит/сек
Максимальный битрейт                     : 2601 Кбит/сек
Ширина                                   : 1280 пикселей
Высота                                   : 720 пикселей
Соотношение сторон                       : 16:9
Режим частоты кадров                     : Постоянный
Частота кадров                           : 23,976 кадра/сек
Цветовое пространство                    : YUV
Субдискретизация насыщенности            : 4:2:0
Битовая глубина                          : 8 бит
Тип развёртки                            : Прогрессивная
Бит/(Пиксели*Кадры)                      : 0.073
Размер потока                            : 38,2 Мбайт (89%)
Дата пометки                             : UTC 2015-05-17 03:35:23

Аудио
Идентификатор                            : 2
Формат                                   : AAC
Формат/Информация                        : Advanced Audio Codec
Профиль формата                          : LC
Идентификатор кодека                     : 40
Продолжительность                        : 3 м. 19 с.
Вид битрейта                             : Переменный
Битрейт                                  : 192 Кбит/сек
Максимальный битрейт                     : 202 Кбит/сек
Каналы                                   : 2 канала
Расположение каналов                     : Front: L R
Частота                                  : 44,1 КГц
Метод сжатия                             : С потерями
Размер потока                            : 4,57 Мбайт (11%)
Заголовок                                : IsoMedia File Produced by Google, 5-11-2011
Язык                                     : English
Дата кодирования                         : UTC 2015-05-17 03:35:20
Дата пометки                             : UTC 2015-05-17 03:35:23

Общее
Полное имя                               : \Аркадий КОБЯКОВ - Видеоклипы\02. Аркадий КОБЯКОВ - Мерцание звёзд.mp4
Формат                                   : MPEG-4
Профиль формата                          : Base Media / Version 2
Идентификатор кодека                     : mp42
Размер файла                             : 49,5 Мбайт
Продолжительность                        : 3 м. 50 с.
Режим общего битрейта                    : Переменный
Общий поток                              : 1801 Кбит/сек
Дата кодирования                         : UTC 2014-12-30 17:03:46
Дата пометки                             : UTC 2014-12-30 17:03:46
gsst                                     : 0
gstd                                     : 230643
gssd                                     : B4E257044HM1436039233233453
gshh                                     : r1---sn-gvnuxaxjvh-5gie.googlevideo.com

Видео
Идентификатор                            : 1
Формат                                   : AVC
Формат/Информация                        : Advanced Video Codec
Профиль формата                          :
Параметр CABAC формата                   : Да
Параметр ReFrames формата                : 1 кадр
Идентификатор кодека                     : avc1
Идентификатор кодека/Информация          : Advanced Video Coding
Продолжительность                        : 3 м. 50 с.
Битрейт                                  : 1607 Кбит/сек
Максимальный битрейт                     : 8732 Кбит/сек
Ширина                                   : 1280 пикселей
Высота                                   : 720 пикселей
Соотношение сторон                       : 16:9
Режим частоты кадров                     : Постоянный
Частота кадров                           : 25,000 кадров/сек
Цветовое пространство                    : YUV
Субдискретизация насыщенности            : 4:2:0
Битовая глубина                          : 8 бит
Тип развёртки                            : Прогрессивная
Бит/(Пиксели*Кадры)                      : 0.070
Размер потока                            : 44,2 Мбайт (89%)
Дата пометки                             : UTC 2014-12-30 17:03:47

Аудио
Идентификатор                            : 2
Формат                                   : AAC
Формат/Информация                        : Advanced Audio Codec
Профиль формата                          : LC
Идентификатор кодека                     : 40
Продолжительность                        : 3 м. 50 с.
Вид битрейта                             : Переменный
Битрейт                                  : 192 Кбит/сек
Максимальный битрейт                     : 205 Кбит/сек
Каналы                                   : 2 канала
Расположение каналов                     : Front: L R
Частота                                  : 44,1 КГц
Метод сжатия                             : С потерями
Размер потока                            : 5,28 Мбайт (11%)
Заголовок                                : IsoMedia File Produced by Google, 5-11-2011
Дата кодирования                         : UTC 2014-12-30 17:03:47
Дата пометки                             : UTC 2014-12-30 17:03:47

Общее
Полное имя                               : \Аркадий КОБЯКОВ - Видеоклипы\03. Аркадий КОБЯКОВ - Некуда бежать.mp4
Формат                                   : MPEG-4
Профиль формата                          : Base Media / Version 2
Идентификатор кодека                     : mp42
Размер файла                             : 28,9 Мбайт
Продолжительность                        : 3 м. 18 с.
Режим общего битрейта                    : Переменный
Общий поток                              : 1220 Кбит/сек
Дата кодирования                         : UTC 2015-04-03 07:14:24
Дата пометки                             : UTC 2015-04-03 07:14:24
gsst                                     : 0
gstd                                     : 198460
gssd                                     : B4A7DDA86MH1434225567726280
gshh                                     : r6---sn-4g57kue6.googlevideo.com

Видео
Идентификатор                            : 1
Формат                                   : AVC
Формат/Информация                        : Advanced Video Codec
Профиль формата                          :
Параметр CABAC формата                   : Да
Параметр ReFrames формата                : 1 кадр
Параметр GOP формата                     : M=1, N=60
Идентификатор кодека                     : avc1
Идентификатор кодека/Информация          : Advanced Video Coding
Продолжительность                        : 3 м. 18 с.
Битрейт                                  : 1026 Кбит/сек
Максимальный битрейт                     : 1941 Кбит/сек
Ширина                                   : 1280 пикселей
Высота                                   : 720 пикселей
Соотношение сторон                       : 16:9
Режим частоты кадров                     : Постоянный
Частота кадров                           : 23,976 кадра/сек
Цветовое пространство                    : YUV
Субдискретизация насыщенности            : 4:2:0
Битовая глубина                          : 8 бит
Тип развёртки                            : Прогрессивная
Бит/(Пиксели*Кадры)                      : 0.046
Размер потока                            : 24,3 Мбайт (84%)
Дата пометки                             : UTC 2015-04-03 07:14:25

Аудио
Идентификатор                            : 2
Формат                                   : AAC
Формат/Информация                        : Advanced Audio Codec
Профиль формата                          : LC
Идентификатор кодека                     : 40
Продолжительность                        : 3 м. 18 с.
Вид битрейта                             : Переменный
Битрейт                                  : 192 Кбит/сек
Максимальный битрейт                     : 204 Кбит/сек
Каналы                                   : 2 канала
Расположение каналов                     : Front: L R
Частота                                  : 44,1 КГц
Метод сжатия                             : С потерями
Размер потока                            : 4,54 Мбайт (16%)
Заголовок                                : IsoMedia File Produced by Google, 5-11-2011
Язык                                     : English
Дата кодирования                         : UTC 2015-04-03 07:14:25
Дата пометки                             : UTC 2015-04-03 07:14:25

Общее
Полное имя                               : \Аркадий КОБЯКОВ - Видеоклипы\04. Аркадий КОБЯКОВ - Я не забуду.mp4
Формат                                   : MPEG-4
Профиль формата                          : Base Media / Version 2
Идентификатор кодека                     : mp42
Размер файла                             : 42,2 Мбайт
Продолжительность                        : 4 м. 40 с.
Режим общего битрейта                    : Переменный
Общий поток                              : 1262 Кбит/сек
Дата кодирования                         : UTC 2015-04-21 06:17:28
Дата пометки                             : UTC 2015-04-21 06:17:28
gsst                                     : 0
gstd                                     : 280520
gssd                                     : B4E257044HM1435607599815659
gshh                                     : r1---sn-gvnuxaxjvh-5gie.googlevideo.com

Видео
Идентификатор                            : 1
Формат                                   : AVC
Формат/Информация                        : Advanced Video Codec
Профиль формата                          :
Параметр CABAC формата                   : Да
Параметр ReFrames формата                : 1 кадр
Идентификатор кодека                     : avc1
Идентификатор кодека/Информация          : Advanced Video Coding
Продолжительность                        : 4 м. 40 с.
Битрейт                                  : 1068 Кбит/сек
Максимальный битрейт                     : 2503 Кбит/сек
Ширина                                   : 1280 пикселей
Высота                                   : 720 пикселей
Соотношение сторон                       : 16:9
Режим частоты кадров                     : Постоянный
Частота кадров                           : 24,000 кадра/сек
Цветовое пространство                    : YUV
Субдискретизация насыщенности            : 4:2:0
Битовая глубина                          : 8 бит
Тип развёртки                            : Прогрессивная
Бит/(Пиксели*Кадры)                      : 0.048
Размер потока                            : 35,7 Мбайт (85%)
Дата пометки                             : UTC 2015-04-21 06:17:43

Аудио
Идентификатор                            : 2
Формат                                   : AAC
Формат/Информация                        : Advanced Audio Codec
Профиль формата                          : LC
Идентификатор кодека                     : 40
Продолжительность                        : 4 м. 40 с.
Вид битрейта                             : Переменный
Битрейт                                  : 192 Кбит/сек
Максимальный битрейт                     : 203 Кбит/сек
Каналы                                   : 2 канала
Расположение каналов                     : Front: L R
Частота                                  : 44,1 КГц
Метод сжатия                             : С потерями
Размер потока                            : 6,42 Мбайт (15%)
Заголовок                                : IsoMedia File Produced by Google, 5-11-2011
Язык                                     : English
Дата кодирования                         : UTC 2015-04-21 06:17:41
Дата пометки                             : UTC 2015-04-21 06:17:43

Общее
Полное имя                               : \Аркадий КОБЯКОВ - Видеоклипы\05. Аркадий КОБЯКОВ - Ветерок.mp4
Формат                                   : MPEG-4
Профиль формата                          : Base Media / Version 2
Идентификатор кодека                     : mp42
Размер файла                             : 80,1 Мбайт
Продолжительность                        : 3 м. 51 с.
Режим общего битрейта                    : Переменный
Общий поток                              : 2898 Кбит/сек
Дата кодирования                         : UTC 2015-03-25 11:46:56
Дата пометки                             : UTC 2015-03-25 11:46:56
gsst                                     : 0
gstd                                     : 231966
gssd                                     : B4E257046HM1435608605225384
gshh                                     : r3---sn-gvnuxaxjvh-5gie.googlevideo.com

Видео
Идентификатор                            : 1
Формат                                   : AVC
Формат/Информация                        : Advanced Video Codec
Профиль формата                          :
Параметр CABAC формата                   : Да
Параметр ReFrames формата                : 1 кадр
Идентификатор кодека                     : avc1
Идентификатор кодека/Информация          : Advanced Video Coding
Продолжительность                        : 3 м. 51 с.
Битрейт                                  : 2704 Кбит/сек
Максимальный битрейт                     : 4703 Кбит/сек
Ширина                                   : 1280 пикселей
Высота                                   : 720 пикселей
Соотношение сторон                       : 16:9
Режим частоты кадров                     : Постоянный
Частота кадров                           : 29,970 кадров/сек
Цветовое пространство                    : YUV
Субдискретизация насыщенности            : 4:2:0
Битовая глубина                          : 8 бит
Тип развёртки                            : Прогрессивная
Бит/(Пиксели*Кадры)                      : 0.098
Размер потока                            : 74,7 Мбайт (93%)
Дата пометки                             : UTC 2015-03-25 11:46:59

Аудио
Идентификатор                            : 2
Формат                                   : AAC
Формат/Информация                        : Advanced Audio Codec
Профиль формата                          : LC
Идентификатор кодека                     : 40
Продолжительность                        : 3 м. 51 с.
Вид битрейта                             : Переменный
Битрейт                                  : 192 Кбит/сек
Максимальный битрейт                     : 204 Кбит/сек
Каналы                                   : 2 канала
Расположение каналов                     : Front: L R
Частота                                  : 44,1 КГц
Метод сжатия                             : С потерями
Размер потока                            : 5,31 Мбайт (7%)
Заголовок                                : IsoMedia File Produced by Google, 5-11-2011
Язык                                     : English
Дата кодирования                         : UTC 2015-03-25 11:46:58
Дата пометки                             : UTC 2015-03-25 11:46:59

Общее
Полное имя                               : \Аркадий КОБЯКОВ - Видеоклипы\06. Аркадий КОБЯКОВ - Я лишь прохожий.mp4
Формат                                   : MPEG-4
Профиль формата                          : Base Media / Version 2
Идентификатор кодека                     : mp42
Размер файла                             : 62,4 Мбайт
Продолжительность                        : 4 м. 12 с.
Режим общего битрейта                    : Переменный
Общий поток                              : 2069 Кбит/сек
Дата кодирования                         : UTC 2015-05-17 08:49:52
Дата пометки                             : UTC 2015-05-17 08:49:52
gsst                                     : 0
gstd                                     : 252933
gssd                                     : B4E257044HM1435607894370995
gshh                                     : r1---sn-gvnuxaxjvh-5gie.googlevideo.com

Видео
Идентификатор                            : 1
Формат                                   : AVC
Формат/Информация                        : Advanced Video Codec
Профиль формата                          :
Параметр CABAC формата                   : Да
Параметр ReFrames формата                : 1 кадр
Идентификатор кодека                     : avc1
Идентификатор кодека/Информация          : Advanced Video Coding
Продолжительность                        : 4 м. 12 с.
Битрейт                                  : 1874 Кбит/сек
Максимальный битрейт                     : 5543 Кбит/сек
Ширина                                   : 1280 пикселей
Высота                                   : 720 пикселей
Соотношение сторон                       : 16:9
Режим частоты кадров                     : Постоянный
Частота кадров                           : 23,976 кадра/сек
Цветовое пространство                    : YUV
Субдискретизация насыщенности            : 4:2:0
Битовая глубина                          : 8 бит
Тип развёртки                            : Прогрессивная
Бит/(Пиксели*Кадры)                      : 0.085
Размер потока                            : 56,5 Мбайт (91%)
Дата пометки                             : UTC 2015-05-17 08:49:53

Аудио
Идентификатор                            : 2
Формат                                   : AAC
Формат/Информация                        : Advanced Audio Codec
Профиль формата                          : LC
Идентификатор кодека                     : 40
Продолжительность                        : 4 м. 12 с.
Вид битрейта                             : Переменный
Битрейт                                  : 192 Кбит/сек
Максимальный битрейт                     : 203 Кбит/сек
Каналы                                   : 2 канала
Расположение каналов                     : Front: L R
Частота                                  : 44,1 КГц
Метод сжатия                             : С потерями
Размер потока                            : 5,79 Мбайт (9%)
Заголовок                                : IsoMedia File Produced by Google, 5-11-2011
Язык                                     : English
Дата кодирования                         : UTC 2015-05-17 08:49:53
Дата пометки                             : UTC 2015-05-17 08:49:53

Общее
Полное имя                               : \Аркадий КОБЯКОВ - Видеоклипы\07. Аркадий КОБЯКОВ - Если любишь ты.mp4
Формат                                   : MPEG-4
Профиль формата                          : Base Media / Version 2
Идентификатор кодека                     : mp42
Размер файла                             : 71,0 Мбайт
Продолжительность                        : 7 м. 5 с.
Режим общего битрейта                    : Переменный
Общий поток                              : 1402 Кбит/сек
Дата кодирования                         : UTC 2015-05-24 10:09:12
Дата пометки                             : UTC 2015-05-24 10:09:12
gsst                                     : 0
gstd                                     : 425110
gssd                                     : B4E257046MM1435608305279025
gshh                                     : r3---sn-gvnuxaxjvh-5gie.googlevideo.com

Видео
Идентификатор                            : 1
Формат                                   : AVC
Формат/Информация                        : Advanced Video Codec
Профиль формата                          :
Параметр CABAC формата                   : Да
Параметр ReFrames формата                : 1 кадр
Параметр GOP формата                     : M=1, N=60
Идентификатор кодека                     : avc1
Идентификатор кодека/Информация          : Advanced Video Coding
Продолжительность                        : 7 м. 5 с.
Битрейт                                  : 1207 Кбит/сек
Максимальный битрейт                     : 2392 Кбит/сек
Ширина                                   : 1280 пикселей
Высота                                   : 720 пикселей
Соотношение сторон                       : 16:9
Режим частоты кадров                     : Постоянный
Частота кадров                           : 23,976 кадра/сек
Цветовое пространство                    : YUV
Субдискретизация насыщенности            : 4:2:0
Битовая глубина                          : 8 бит
Тип развёртки                            : Прогрессивная
Бит/(Пиксели*Кадры)                      : 0.055
Размер потока                            : 61,2 Мбайт (86%)
Дата пометки                             : UTC 2015-05-24 10:09:15

Аудио
Идентификатор                            : 2
Формат                                   : AAC
Формат/Информация                        : Advanced Audio Codec
Профиль формата                          : LC
Идентификатор кодека                     : 40
Продолжительность                        : 7 м. 5 с.
Вид битрейта                             : Переменный
Битрейт                                  : 192 Кбит/сек
Максимальный битрейт                     : 204 Кбит/сек
Каналы                                   : 2 канала
Расположение каналов                     : Front: L R
Частота                                  : 44,1 КГц
Метод сжатия                             : С потерями
Размер потока                            : 9,73 Мбайт (14%)
Заголовок                                : IsoMedia File Produced by Google, 5-11-2011
Язык                                     : English
Дата кодирования                         : UTC 2015-05-24 10:09:14
Дата пометки                             : UTC 2015-05-24 10:09:15

Скриншоты:



Время раздачи: 24/7 до 5 скачавших
 
Не забывайте говорить Спасибо. Не уходите с раздачи!   
Торрент: Зарегистрирован [12 авг 2015, 15:14] Скачать торрент
Скачать торрент
[ Размер 16.12 КБ / Просмотров 23 ]
Статус:
Проверен
 
.torrent скачан: 0 раз
Хэш: 06cbac3391ea7d4b5538ced796f8aef514e40b4f
Размер: 376.95 МБ (395 263 862 байт)
Стать Автором раздачи
 
 
Раздал: 690.52 МБ
Скачал: 0 байт
Ратио: Seed.
Сообщения: 218210
Зарегистрирован: 14 июн 2014, 21:11


  • Похожие торренты
    Ответы
    Просмотры
    Последнее сообщение

Вернуться в Музыкальные клипы (транзит)

Ресурс не предоставляет электронные версии произведений, а занимается лишь коллекционированием и каталогизацией ссылок, присылаемых и публикуемых на форуме нашими читателями. Если вы являетесь правообладателем какого-либо представленного материала и не желаете чтобы ссылка на него находилась в нашем каталоге, свяжитесь с нами и мы незамедлительно удалим её. Файлы для обмена на трекере предоставлены пользователями сайта, и администрация не несёт ответственности за их содержание. Просьба не заливать файлы, защищенные авторскими правами, а также файлы нелегального содержания!
cron