Физика света / The Physics of Light (2014) SATRip (1-6 серии из 6)

 
 Статистика раздачи 
Размер: 4.14 ГБ   |  Зарегистрирован: 11 авг 2015, 15:55   |   .torrent скачан: 0 раз
Сидеров: 1  [ 0 байт/сек ]     Личеров: 0  [ 0 байт/сек ]  
  

Физика света / The Physics of Light (2014) SATRip (1-6 серии из 6)

Сообщение PetaByte » 11 авг 2015, 15:55

Физика света / The Physics of Light (2014) SATRip

Телекомпания: Южная Корея, EBS
Жанр: Документальный

Режиссер: Юн Ки Ли

Описание:
Серия фильмов из 6 частей исследует истинную природу света и пытается предугадать самые невероятные теории физики, начиная рассказ с истоков - с теории относительности Альберта Эйнштейна.

Продолжительность: 6 x 00:48:54
Качество видео: SATRip

Перевод: Дублированный

Видео: Xvid, 720x400, ~1750 kbps
Аудио: AC3, 2 ch, 192 Kbps
Семпл: Скачать
Код:
Код: Выделить всё
General
      Format : AVI
      Format/Info : Audio Video Interleave
      File size : 702 MiB
      Duration : 50mn 18s
      Overall bit rate : 1 952 Kbps
      Movie name : The Physics of Light
      Director : SATRip by Thunder
      Writing application : VirtualDubMod 1.5.10.3 | [url=http://www.virtualdub-fr.org]www.virtualdub-fr.org[/url] || (build 2550/release)
      Original source form/Name : Documentary
   Video #0
      ID : 0
      Format : MPEG-4 Visual
      Format profile : Advanced Simple@L5
      Format settings, BVOP : 1
      Format settings, QPel : No
      Format settings, GMC : No warppoints
      Format settings, Matrix : Default (H.263)
      Codec ID : XVID
      Codec ID/Hint : XviD
      Duration : 50mn 18s
      Bit rate : 1 750 Kbps
      Width : 720 pixels
      Height : 400 pixels
      Display aspect ratio : 16:9
      Frame rate : 25.000 fps
      Color space : YUV
      Chroma subsampling : 4:2:0
      Bit depth : 8 bits
      Scan type : Progressive
      Compression mode : Lossy
      Bits/(Pixel*Frame) : 0.243
      Stream size : 630 MiB (90%)
      Writing library : XviD 1.2.1 (UTC 2008-12-04)
   Audio #1
      ID : 1
      Format : AC-3
      Format/Info : Audio Coding 3
      Mode extension : CM (complete main)
      Format settings, Endianness : Big
      Codec ID : 2000
      Duration : 50mn 18s
      Bit rate mode : Constant
      Bit rate : 192 Kbps
      Channel(s) : 2 channels
      Channel positions : Front: L R
      Sampling rate : 48.0 KHz
      Bit depth : 16 bits
      Compression mode : Lossy
      Stream size : 69.1 MiB (10%)
      Alignment : Split accross interleaves
      Interleave, duration : 40 ms (1.00 video frame)
      Interleave, preload duration : 500 ms
Внимание! Раздача ведётся путём добавления новых серий; при каждом добавлении создаётся новый торрент. Чтобы начать докачку новой серии, пользователям необходимо сделать следующее:
• Остановить скачивание.
• Удалить старый торрент у себя из клиента (старые серии удалять не надо).
• Скачать новый торрент и запустить его у себя в клиенте вместо старого, при этом указать клиенту путь в старую папку куда и должно происходить скачивание новых серий.
Ваш клиент при этом должен произвести хеширование (проверку) старой папки (если не производит сам - помогите ему сделать это), и будет докачивать только те серии которых у вас ещё нет. Старые серии при этом не удаляются, а продолжают раздаваться!
Eсли вы уже удалили старые серии, то предотвратить повторную закачку старых серий можно, отжав галочку в соответсвующих местах при запуске нового торрента. По возможности, желательно не удалять старые серии как можно дольше чтобы релизёр не столько продолжал раздавать старые серии, а смог сконцентрироваться на новых.

Скриншоты:



Время раздачи: с 09:00 до 23:30
 
Не забывайте говорить Спасибо. Не уходите с раздачи!   
Торрент: Зарегистрирован [11 авг 2015, 15:55] Скачать торрент
Скачать торрент
[ Размер 11.75 КБ / Просмотров 231 ]
Статус:
Проверен
 
.torrent скачан: 0 раз
Хэш: 30ccf62b18b730ed5079db6a09015aa35f684188
Размер: 4.14 ГБ (4 442 585 088 байт)
Стать Автором раздачи
 
 
Раздал: 10 ГБ
Скачал: 8 МБ
Ратио: 1280.000
Сообщения: 234240
Зарегистрирован: 22 фев 2013, 11:10


  • Похожие торренты
    Ответы
    Просмотры
    Последнее сообщение

Вернуться в Интересно обо всем

Ресурс не предоставляет электронные версии произведений, а занимается лишь коллекционированием и каталогизацией ссылок, присылаемых и публикуемых на форуме нашими читателями. Если вы являетесь правообладателем какого-либо представленного материала и не желаете чтобы ссылка на него находилась в нашем каталоге, свяжитесь с нами и мы незамедлительно удалим её. Файлы для обмена на трекере предоставлены пользователями сайта, и администрация не несёт ответственности за их содержание. Просьба не заливать файлы, защищенные авторскими правами, а также файлы нелегального содержания!
cron