Волчьи дети Амэ и Юки / Ookami Kodomo no Ame to Yuki / The Wolf Children Ame and Yuki (Хосода Мамору) [Movie] [2012 г., драма, фэнтези, BDRip] [Reanimedia]

 
 Статистика раздачи 
Размер: 526.44 МБ   |  Зарегистрирован: 10 авг 2015, 16:51   |   .torrent скачан: 1 раз
Сидеров: 1  [ 0 байт/сек ]     Личеров: 0  [ 0 байт/сек ]  
  

Волчьи дети Амэ и Юки / Ookami Kodomo no Ame to Yuki / The Wolf Children Ame and Yuki (Хосода Мамору) [Movie] [2012 г., драма, фэнтези, BDRip] [Reanimedia]

Сообщение bagouser » 10 авг 2015, 16:51

Волчьи дети Амэ и Юки

«Love wildly»

Оригинальное Название: おおかみこどもの雨と雪
Английское Название: Ookami Kodomo no Ame to Yuki
Год Выпуска: 2012 г.
Cтрана: Япония
Жанр: драма, фэнтези
Продолжительность: 01:57:01
Перевод: Профессиональный (полное дублирование) [Reanimedia]
Cубтитры: Русский хардсаб [надписи]
Режиссер: Хосода Мамору
Автор оригинала: Хосода Мамору
Студия:

Описание:
Юки и Амэ — только с виду обычные дети, которым должны быть нипочем тяготы окружающего мира. Когда погибает их отец, последний представитель древнего рода оборотней, их матери — обыкновенной девушке, когда-то влюбившейся в человека, оказавшегося волком — приходится переехать подальше от большого города и начать все сначала. Охватывая 13 лет, фильм рассказывает одновременно грустную и веселую, сказочную и вместе с тем очень жизненную историю о материнстве, взрослении и ответственности за сделанный в жизни выбор.
Фильм режиссера Мамору Хосоды, подарившего нам «Девочку, покорившую время» и «Летние войны», стал одним из рекордсменов японского проката в 2012 году. Нетрудно понять, почему: простая история, наполненная тем внутренним светом, что всегда отличал лучшие произведения японской анимации, стала в руках мастера захватывающим кинопроизведением, вызывающим зрителя на серьезный разговор.



Источник: Blu-Ray Disc
Качество: BDRip
Формат: MP4
Видео кодек: H.264
Аудио кодек: AAC
Видео: MPEG-4 AVC Video (H.264) / 480х272 / 497 kbps / 23.976 fps / 16:9 / Main Profile 3.0
Аудио: AAC, 2 channels, 48 kHz, 128 kbps
Сравнение с http://rutracker.org/forum/viewtopic.php?t=4363617
- там субтитры, тут озвучка (дубляж)

Код:
Код: Выделить всё
General
Complete name                       : Волчьи.дети.Амэ.и.Юки.2012.BDRip.mp4
Format                              : MPEG-4
Format profile                      : Base Media
Codec ID                            : isom
File size                           : 526 MiB
Duration                            : 1h 57mn
Overall bit rate mode               : Variable
Overall bit rate                    : 629 Kbps
Encoded date                        : UTC 2014-12-18 10:41:14
Tagged date                         : UTC 2014-12-18 10:41:14

Video
ID                                  : 1
Format                              : AVC
Format/Info                         : Advanced Video Codec
Format profile                      : Main@L3.0
Format settings, CABAC              : Yes
Format settings, ReFrames           : 3 frames
Codec ID                            : avc1
Codec ID/Info                       : Advanced Video Coding
Duration                            : 1h 57mn
Bit rate                            : 497 Kbps
Maximum bit rate                    : 7 453 Kbps
Width                               : 480 pixels
Height                              : 272 pixels
Display aspect ratio                : 16:9
Frame rate mode                     : Constant
Frame rate                          : 23.976 fps
Color space                         : YUV
Chroma subsampling                  : 4:2:0
Bit depth                           : 8 bits
Scan type                           : Progressive
Bits/(Pixel*Frame)                  : 0.159
Stream size                         : 416 MiB (79%)
Writing library                     : x264 core 130 r2273 b3065e6
Encoding settings                   : cabac=1 / ref=3 / deblock=1:-2:-1 / analyse=0x1:0x131 / me=umh / subme=9 / psy=1 / psy_rd=1.00:0.20 / mixed_ref=1 / me_range=16 / chroma_me=1 / trellis=2 / 8x8dct=0 / cqm=0 / deadzone=21,11 / fast_pskip=0 / chroma_qp_offset=-3 / threads=12 / lookahead_threads=1 / sliced_threads=0 / nr=0 / decimate=0 / interlaced=0 / bluray_compat=0 / constrained_intra=0 / bframes=3 / b_pyramid=0 / b_adapt=2 / b_bias=0 / direct=1 / weightb=1 / open_gop=0 / weightp=2 / keyint=250 / keyint_min=23 / scenecut=40 / intra_refresh=0 / rc=cqp / mbtree=0 / qp=15 / ip_ratio=1.40 / pb_ratio=1.30 / aq=0
Encoded date                        : UTC 2014-12-18 10:41:14
Tagged date                         : UTC 2014-12-18 10:42:08

Audio
ID                                  : 2
Format                              : AAC
Format/Info                         : Advanced Audio Codec
Format profile                      : LC
Codec ID                            : 40
Duration                            : 1h 57mn
Bit rate mode                       : Variable
Bit rate                            : 128 Kbps
Maximum bit rate                    : 149 Kbps
Channel(s)                          : 2 channels
Channel positions                   : Front: L R
Sampling rate                       : 48.0 KHz
Compression mode                    : Lossy
Delay relative to video             : 83ms
Stream size                         : 107 MiB (20%)
Encoded date                        : UTC 2014-12-18 10:41:42
Tagged date                         : UTC 2014-12-18 10:42:08

















Если вы скачали данный релиз и хотите выложить его на другом ресурсе -
пожалуйста, указывайте первоисточник
- R.G. Video Games World
 
Не забывайте говорить Спасибо. Не уходите с раздачи!   
Торрент: Зарегистрирован [10 авг 2015, 16:51] Скачать торрент
Скачать торрент
[ Размер 10.9 КБ / Просмотров 11 ]
Статус:
Проверен
 
.torrent скачан: 1 раз
Хэш: a45da9bcc9f35b1136cc4d0abfc39ce8e0902803
Размер: 526.44 МБ (552 011 869 байт)
Стать Автором раздачи
 
Аватара пользователя
 
Раздал: 3.77 ТБ
Скачал: 406.3 ГБ
Ратио: 9.496
Сообщения: 468705
Зарегистрирован: 20 янв 2011, 21:15


Re: Волчьи дети Амэ и Юки / Ookami Kodomo no Ame to Yuki / The Wolf Children Ame and Yuki (Хосода Мамору) [Movie] [2012 г., драма, фэнтези, BDRip] [Reanimedia]

Сообщение bussedo » 21 июл 2018, 09:39

Если вас не затруднит пожалуйста встанте ктонибуть на раздачу, зарание спасибо. :)
 
Раздал: 203.92 ГБ
Скачал: 55.95 ГБ
Ратио: 3.645
Сообщения: 62
Зарегистрирован: 26 авг 2016, 11:05

Re: Волчьи дети Амэ и Юки / Ookami Kodomo no Ame to Yuki / The Wolf Children Ame and Yuki (Хосода Мамору) [Movie] [2012 г., драма, фэнтези, BDRip] [Reanimedia]

Сообщение i926 » 22 июл 2018, 13:04

Воспользуйтесь этой раздачей: viewtopic.php?t=3442009 . Размер чуть более, но качество выше и есть сиды :)
По судьбе этой раздачи, пока затрудняюсь дать ясность
Аватара пользователя
Главный редактор
Главный редактор
 
Раздал: 15.43 ТБ
Скачал: 13.78 ТБ
Ратио: 1.120
Сообщения: 65445
Зарегистрирован: 01 мар 2011, 23:07


  • Похожие торренты
    Ответы
    Просмотры
    Последнее сообщение

Вернуться в Аниме для PSP

Ресурс не предоставляет электронные версии произведений, а занимается лишь коллекционированием и каталогизацией ссылок, присылаемых и публикуемых на форуме нашими читателями. Если вы являетесь правообладателем какого-либо представленного материала и не желаете чтобы ссылка на него находилась в нашем каталоге, свяжитесь с нами и мы незамедлительно удалим её. Файлы для обмена на трекере предоставлены пользователями сайта, и администрация не несёт ответственности за их содержание. Просьба не заливать файлы, защищенные авторскими правами, а также файлы нелегального содержания!