Виски. Версия Айлы / Whisky: The Islay Edition (2011) BDRemux [H.264/1080p]

 
 Статистика раздачи 
Размер: 9.65 ГБ   |  Зарегистрирован: 09 авг 2015, 02:05   |   .torrent скачан: 0 раз
Сидеров: 1  [ 0 байт/сек ]     Личеров: 0  [ 0 байт/сек ]  
  

Виски. Версия Айлы / Whisky: The Islay Edition (2011) BDRemux [H.264/1080p]

Сообщение BitFire » 09 авг 2015, 02:05

Виски. Версия Айлы / Whisky: The Islay Edition (2011) BDRemux [H.264/1080p]

Производство: Великобритания
Жанр: Документальный

Режиссер: Олав Верховен

Описание:
Документальный фильм "Виски. Версия Айлы" переносит зрителя в святая святых шотландского золота. Его цель не просто рассказать нам о виски, а показать тонкости этого напитка, искусство дегустации, ремесло дистилляции, истории заводов и богатство острова Айлы.

Продолжительность: 01:02:27 + 00:07:11
Качество видео: BDRemux
Перевод: Одноголосый закадровый, профессиональный | студия «Омикрон»
Язык субтитров: Английский
Вид субтитров: Вшитые отключаемые

Видео: MPEG4-AVC/H.264, ~18,6 Mbps, 1920x1080
Аудио #1: Русский, AC3, 6 ch, 640 kbps
Аудио #2: Английский, AC3, 6 ch, 640 kbps
Код:
Код: Выделить всё
Общее
Уникальный идентификатор                 : 211941351590633130613673386522207792416 (0x9F726B67834884F2AA1A4A35CD6F2D20)
Полное имя                               : Viski.versiya.Aili.2011.BDRemux_NNM-CLUB\Viski.versiya.Aili.mkv
Формат                                   : Matroska
Версия формата                           : Version 4 / Version 2
Размер файла                             : 8,63 Гбайт
Продолжительность                        : 1 ч. 2 м.
Режим общего битрейта                    : Переменный
Общий поток                              : 19,8 Мбит/сек
Название фильма                          : Виски. Версия Айлы
Дата кодирования                         : UTC 2015-08-08 10:01:01
Программа кодирования                    : mkvmerge v8.1.0 ('Psychedelic Postcard') 64bit
Библиотека кодирования                   : libebml v1.3.1 + libmatroska v1.4.2
DURATION                                 : 00:58:39.916000000
NUMBER_OF_FRAMES                         : 1356
NUMBER_OF_BYTES                          : 11313278
_STATISTICS_WRITING_APP                  : mkvmerge v8.1.0 ('Psychedelic Postcard') 64bit
_STATISTICS_WRITING_DATE_UTC             : 2015-08-08 10:01:01
_STATISTICS_TAGS                         : BPS DURATION NUMBER_OF_FRAMES NUMBER_OF_BYTES

Видео
Идентификатор                            : 1
Формат                                   : AVC
Формат/Информация                        : Advanced Video Codec
Профиль формата                          :
Параметр CABAC формата                   : Да
Параметр ReFrames формата                : 4 кадра
Параметр GOP формата                     : M=3, N=24
Идентификатор кодека                     : V_MPEG4/ISO/AVC
Продолжительность                        : 1 ч. 2 м.
Вид битрейта                             : Переменный
Битрейт                                  : 18,1 Мбит/сек
Максимальный битрейт                     : 25,0 Мбит/сек
Ширина                                   : 1920 пикселей
Высота                                   : 1080 пикселей
Соотношение сторон                       : 16:9
Режим частоты кадров                     : Постоянный
Частота кадров                           : 24,000 кадра/сек
Стандарт вещания                         : NTSC
Цветовое пространство                    : YUV
Субдискретизация насыщенности            : 4:2:0
Битовая глубина                          : 8 бит
Тип развёртки                            : Прогрессивная
Бит/(Пиксели*Кадры)                      : 0.364
Размер потока                            : 7,90 Гбайт (92%)
Заголовок                                : Виски. Версия Айлы для NNM-CLUB.me
Язык                                     : English
Default                                  : Да
Forced                                   : Нет
Цветовой диапазон                        : Limited
Основные цвета                           : BT.709
Характеристики трансфера                 : BT.709
Коэффициенты матрицы                     : BT.709

Аудио #1
Идентификатор                            : 2
Формат                                   : AC-3
Формат/Информация                        : Audio Coding 3
Расширение режима                        : CM (complete main)
Параметр Endianness формата              : Big
Идентификатор кодека                     : A_AC3
Продолжительность                        : 1 ч. 2 м.
Вид битрейта                             : Постоянный
Битрейт                                  : 640 Кбит/сек
Каналы                                   : 6 каналов
Расположение каналов                     : Front: L C R, Side: L R, LFE
Частота                                  : 48,0 КГц
Метод сжатия                             : С потерями
Размер потока                            : 286 Мбайт (3%)
Заголовок                                : Русский
Язык                                     : Russian
Default                                  : Да
Forced                                   : Нет

Аудио #2
Идентификатор                            : 3
Формат                                   : AC-3
Формат/Информация                        : Audio Coding 3
Расширение режима                        : CM (complete main)
Параметр Endianness формата              : Big
Идентификатор кодека                     : A_AC3
Продолжительность                        : 1 ч. 2 м.
Вид битрейта                             : Постоянный
Битрейт                                  : 640 Кбит/сек
Каналы                                   : 6 каналов
Расположение каналов                     : Front: L C R, Side: L R, LFE
Частота                                  : 48,0 КГц
Метод сжатия                             : С потерями
Размер потока                            : 286 Мбайт (3%)
Заголовок                                : Английский
Язык                                     : English
Default                                  : Нет
Forced                                   : Нет

Текст
Идентификатор                            : 4
Формат                                   : PGS
Режим смешивания                         : zlib
Идентификатор кодека                     : S_HDMV/PGS
Идентификатор кодека/Информация          : Picture based subtitle format used on BDs/HD-DVDs
Заголовок                                : Английский
Язык                                     : English
Default                                  : Да
Forced                                   : Нет

Код:
Код: Выделить всё
Общее
Уникальный идентификатор                 : 213676846951161042071250016271367578029 (0xA0C0A9EE9214EF4ABF66A94EEEEAA1AD)
Полное имя                               : Viski.versiya.Aili.2011.BDRemux_NNM-CLUB\Viski.versiya.Aili.BONUS.mkv
Формат                                   : Matroska
Версия формата                           : Version 4 / Version 2
Размер файла                             : 1,02 Гбайт
Продолжительность                        : 7 м. 11 с.
Режим общего битрейта                    : Переменный
Общий поток                              : 20,3 Мбит/сек
Название фильма                          : Виски. Версия Айлы. Бонус
Дата кодирования                         : UTC 2015-08-08 10:07:11
Программа кодирования                    : mkvmerge v8.1.0 ('Psychedelic Postcard') 64bit
Библиотека кодирования                   : libebml v1.3.1 + libmatroska v1.4.2
DURATION                                 : 00:07:11.840000000
NUMBER_OF_FRAMES                         : 13495
NUMBER_OF_BYTES                          : 34547200
_STATISTICS_WRITING_APP                  : mkvmerge v8.1.0 ('Psychedelic Postcard') 64bit
_STATISTICS_WRITING_DATE_UTC             : 2015-08-08 10:07:11
_STATISTICS_TAGS                         : BPS DURATION NUMBER_OF_FRAMES NUMBER_OF_BYTES

Видео
Идентификатор                            : 1
Формат                                   : AVC
Формат/Информация                        : Advanced Video Codec
Профиль формата                          :
Параметр CABAC формата                   : Да
Параметр ReFrames формата                : 4 кадра
Идентификатор кодека                     : V_MPEG4/ISO/AVC
Продолжительность                        : 7 м. 11 с.
Вид битрейта                             : Переменный
Битрейт                                  : 18,6 Мбит/сек
Максимальный битрейт                     : 25,0 Мбит/сек
Ширина                                   : 1920 пикселей
Высота                                   : 1080 пикселей
Соотношение сторон                       : 16:9
Режим частоты кадров                     : Постоянный
Частота кадров                           : 24,000 кадра/сек
Стандарт вещания                         : NTSC
Цветовое пространство                    : YUV
Субдискретизация насыщенности            : 4:2:0
Битовая глубина                          : 8 бит
Тип развёртки                            : Прогрессивная
Бит/(Пиксели*Кадры)                      : 0.374
Размер потока                            : 958 Мбайт (92%)
Заголовок                                : Виски. Версия Айлы. Бонус для NNM-CLUB.me
Язык                                     : English
Default                                  : Да
Forced                                   : Нет
Цветовой диапазон                        : Limited
Основные цвета                           : BT.709
Характеристики трансфера                 : BT.709
Коэффициенты матрицы                     : BT.709

Аудио #1
Идентификатор                            : 2
Формат                                   : AC-3
Формат/Информация                        : Audio Coding 3
Расширение режима                        : CM (complete main)
Параметр Endianness формата              : Big
Идентификатор кодека                     : A_AC3
Продолжительность                        : 7 м. 11 с.
Вид битрейта                             : Постоянный
Битрейт                                  : 640 Кбит/сек
Каналы                                   : 2 канала
Расположение каналов                     : Front: L R
Частота                                  : 48,0 КГц
Метод сжатия                             : С потерями
Размер потока                            : 32,9 Мбайт (3%)
Заголовок                                : Русский
Язык                                     : Russian
Default                                  : Да
Forced                                   : Нет

Аудио #2
Идентификатор                            : 3
Формат                                   : AC-3
Формат/Информация                        : Audio Coding 3
Расширение режима                        : CM (complete main)
Параметр Endianness формата              : Big
Идентификатор кодека                     : A_AC3
Продолжительность                        : 7 м. 11 с.
Вид битрейта                             : Постоянный
Битрейт                                  : 640 Кбит/сек
Каналы                                   : 2 канала
Расположение каналов                     : Front: L R
Частота                                  : 48,0 КГц
Метод сжатия                             : С потерями
Размер потока                            : 32,9 Мбайт (3%)
Заголовок                                : Английский
Язык                                     : English
Default                                  : Нет
Forced                                   : Нет

Скриншоты:


Время раздачи: 24/7
 
Не забывайте говорить Спасибо. Не уходите с раздачи!   
Торрент: Зарегистрирован [09 авг 2015, 02:05] Скачать торрент
Скачать торрент
[ Размер 24.98 КБ / Просмотров 232 ]
Статус:
Проверен
 
.torrent скачан: 0 раз
Хэш: a616908bf8c53068b99d403d10aa6898f2df362b
Размер: 9.65 ГБ (10 361 036 254 байт)
Стать Автором раздачи
 
 
Раздал: 398.6 ГБ
Скачал: 172 МБ
Ратио: 2373.085
Сообщения: 228130
Зарегистрирован: 17 апр 2014, 15:26


  • Похожие торренты
    Ответы
    Просмотры
    Последнее сообщение

Вернуться в Интересно обо всем

Ресурс не предоставляет электронные версии произведений, а занимается лишь коллекционированием и каталогизацией ссылок, присылаемых и публикуемых на форуме нашими читателями. Если вы являетесь правообладателем какого-либо представленного материала и не желаете чтобы ссылка на него находилась в нашем каталоге, свяжитесь с нами и мы незамедлительно удалим её. Файлы для обмена на трекере предоставлены пользователями сайта, и администрация не несёт ответственности за их содержание. Просьба не заливать файлы, защищенные авторскими правами, а также файлы нелегального содержания!
cron