Меч 2 (2015) SATRip [H.264] (серии 1-20 из 20 + Пролог) [3GP|320x176]

 
 Статистика раздачи 
Размер: 3.09 ГБ   |  Зарегистрирован: 06 авг 2015, 23:58   |   .torrent скачан: 0 раз
Сидеров: 1  [ 0 байт/сек ]     Личеров: 0  [ 0 байт/сек ]  
  

Меч 2 (2015) SATRip [H.264] (серии 1-20 из 20 + Пролог) [3GP|320x176]

Сообщение BitFire » 06 авг 2015, 23:58

Меч 2 (2015) (серии 1-20 из 20 + Пролог)

Производство: Россия
Жанр: Драма, Детектив, Криминал

Режиссер: Алексей Луканев
Актеры: Эдуард Флёров, Роман Курцын, Дарья Повереннова, Александр Фисенко, Нина Гогаева, Макс Туранцев, Виктория Фишер, Владислав Павлов, Максим Щёголев, Тимур Ефременков, Анна Шевченко, Артур Сопельник, Дмитрий Архангельский, Александр Лырчиков, Андрей Курилов, Владислав Шкляев, Анна Глазкова, Никита Абдулов, Александр Курицын, Евгений Смирнов-Иваницкий, Анатолий Завьялов, Михаил Инчин, Дмитрий Пищулин, Ирина Шабашева, Александр Логинов и др.

Описание:
Карательная организация «Меч», созданная для борьбы с преступниками, ушедшими от правосудия, постепенно восстанавливается. Максим Калинин, получивший тяжелые ранения, постепенно приходит в себя и собирает новую команду. Часть ее – знакомые люди, часть – новые, не менее преданные делу герои. Вместе они снова будут противостоять преступности на улицах Москвы. Участники «Меча» по-прежнему находятся на грани: с одной стороны, криминальный мир, который объявляет огромные деньги за их поимку, с другой – правоохранительные органы, которые охотятся на «оборотней».



Продолжительность: ~ 00:22:00 (00 серия), ~ 00:43:00 остальные серии
Качество видео: SATRip

Видео: AVC/H.264, 320x176, ~350 Kbps
Аудио: AAC, 2 ch, 128 Kbps
Код:
Код: Выделить всё
General
Complete name                       : F:\Torrents\320_Mech2\01.Меч2.3gp
Format                              : MPEG-4
Format profile                      : 3GPP Media Release 6 Basic
Codec ID                            : 3gp6
File size                           : 153 MiB
Duration                            : 44mn 22s
Overall bit rate mode               : Variable
Overall bit rate                    : 481 Kbps
Encoded date                        : UTC 2015-07-07 10:32:43
Tagged date                         : UTC 2015-07-07 10:32:43

Video
ID                                  : 1
Format                              : AVC
Format/Info                         : Advanced Video Codec
Format profile                      :
Format settings, CABAC              : No
Format settings, ReFrames           : 6 frames
Codec ID                            : avc1
Codec ID/Info                       : Advanced Video Coding
Duration                            : 44mn 22s
Bit rate                            : 350 Kbps
Maximum bit rate                    : 1 086 Kbps
Width                               : 320 pixels
Height                              : 176 pixels
Display aspect ratio                : 16:9
Frame rate mode                     : Constant
Frame rate                          : 25.000 fps
Color space                         : YUV
Chroma subsampling                  : 4:2:0
Bit depth                           : 8 bits
Scan type                           : Progressive
Bits/(Pixel*Frame)                  : 0.249
Stream size                         : 111 MiB (73%)
Writing library                     : x264 core 130 r2273 b3065e6
Encoding settings                   : cabac=0 / ref=6 / deblock=1:-2:-1 / analyse=0x1:0x131 / me=umh / subme=6 / psy=1 / psy_rd=1.00:0.00 / mixed_ref=1 / me_range=16 / chroma_me=1 / trellis=0 / 8x8dct=0 / cqm=0 / deadzone=21,11 / fast_pskip=1 / chroma_qp_offset=-2 / threads=3 / lookahead_threads=1 / sliced_threads=0 / nr=0 / decimate=1 / interlaced=0 / bluray_compat=0 / constrained_intra=0 / bframes=0 / weightp=0 / keyint=250 / keyint_min=25 / scenecut=40 / intra_refresh=0 / rc_lookahead=40 / rc=2pass / mbtree=1 / bitrate=350 / ratetol=1.0 / qcomp=0.60 / qpmin=0 / qpmax=69 / qpstep=4 / cplxblur=20.0 / qblur=0.5 / ip_ratio=1.40 / aq=1:1.00
Encoded date                        : UTC 2015-07-07 10:32:43
Tagged date                         : UTC 2015-07-07 10:32:46

Audio
ID                                  : 2
Format                              : AAC
Format/Info                         : Advanced Audio Codec
Format profile                      : LC
Codec ID                            : 40
Duration                            : 44mn 22s
Bit rate mode                       : Variable
Bit rate                            : 128 Kbps
Maximum bit rate                    : 146 Kbps
Channel(s)                          : 2 channels
Channel positions                   : Front: L R
Sampling rate                       : 48.0 KHz
Compression mode                    : Lossy
Stream size                         : 40.6 MiB (27%)
Encoded date                        : UTC 2015-07-07 10:32:46
Tagged date                         : UTC 2015-07-07 10:32:46

Скриншоты:



Время раздачи: Пн-Пт с 10:00 до 17:00
 
Не забывайте говорить Спасибо. Не уходите с раздачи!   
Торрент: Зарегистрирован [06 авг 2015, 23:58] Для скачивания .torrent
необходима регистрация
Или скачать с помощью
MediaGet
Статус:
Проверен
 
.torrent скачан: 0 раз
Хэш: 6bf271ea394bd3a19ddb572500eccdcbe26ad3cc
Размер: 3.09 ГБ (3 316 978 491 байт)
Стать Автором раздачи
 
 
Раздал: 398.6 ГБ
Скачал: 172 МБ
Ратио: 2373.085
Сообщения: 228130
Зарегистрирован: 17 апр 2014, 15:26


  • Похожие торренты
    Ответы
    Просмотры
    Последнее сообщение

Вернуться в Видео для мобильных устройств

Ресурс не предоставляет электронные версии произведений, а занимается лишь коллекционированием и каталогизацией ссылок, присылаемых и публикуемых на форуме нашими читателями. Если вы являетесь правообладателем какого-либо представленного материала и не желаете чтобы ссылка на него находилась в нашем каталоге, свяжитесь с нами и мы незамедлительно удалим её. Файлы для обмена на трекере предоставлены пользователями сайта, и администрация не несёт ответственности за их содержание. Просьба не заливать файлы, защищенные авторскими правами, а также файлы нелегального содержания!
cron