Сошедшие с небес / Рухнувшие небеса / Falling Skies (2015) WEB-DLRip [H.264] (Сезон 5, серии 1-6 из 10) LostFilm [MP4|1280x720]

 
 Статистика раздачи 
Размер: 7.42 ГБ   |  Зарегистрирован: 06 авг 2015, 10:32   |   .torrent скачан: 0 раз
Сидеров: 1  [ 0 байт/сек ]     Личеров: 0  [ 0 байт/сек ]  
  

Сошедшие с небес / Рухнувшие небеса / Falling Skies (2015) WEB-DLRip [H.264] (Сезон 5, серии 1-6 из 10) LostFilm [MP4|1280x720]

Сообщение Satch » 06 авг 2015, 10:32

Сошедшие с небес / Рухнувшие небеса / Falling Skies (2015) WEB-DLRip
(Сезон 5, серии 1-6 из 10) LostFilm
«We're not just fighting for our lives. We're fighting for our existence»

Производство: США, Канада
Жанр: Фантастика, Боевик, Триллер

Режиссер: Грег Биман, Холли Дэйл, Серджо Мимика-Геззан
Актеры: Колин Каннингэм, Максим Найт, Ноа Уайл, Мун Бладгуд, Мфо Коахо, Сара Картер, Коннор Джессуп, Брюс Грэй, Дейл Дай, Дрю Рой и др.

Описание:
В результате инопланетного вторжения на Землю один из сыновей профессора истории Тома Мэйсона попадает в плен, а его жена гибнет. Она оказалась одной из миллионов людей, погибших от рук пришельцев. Люди, которым посчастливилось остаться в живых, вступают в партизанские отряды, объединяются для оказания сопротивления захватчикам.

Землю атакуют два вида инопланетян – прямоходящие, прекрасно вооруженные роботы Mechs и насекомоподобные Skitters. Людям приходится несладко, а борьба с незваными гостями становится все сложнее из-за того, что последние используют современное оборудование, с помощью которого можно легко определить местонахождение больших групп людей. Именно поэтому остается одна надежда на партизан, которые боролись с противником небольшими группами. Немалых усилий, а часто и человеческих жизней стоит выявление слабых сторон захватчиков.



Продолжительность: ~ 00:42:00 серия
Качество видео: WEB-DLRip 720p
Перевод: Многоголосый закадровый, профессиональный - LostFilm
Озвучка: Студия «LostFilm»

Видео: AVC/H.264, 1280x720 (16:9), ~4000 Кбит/сек
Аудио: AAC, 2 канала, 265 Кбит/сек - русский (многоголосый закадровый, LostFilm)
Код:
Код: Выделить всё
Полное имя                               : E:\Falling_Skies_s5_WEB-DL720p_x264_LostFilm_[NNM-CLUB]\Falling.Skies.S05E01.720p.WEB.rus.LostFilm.TV.mp4
Формат                                   : MPEG-4
Профиль формата                          : Base Media
Идентификатор кодека                     : isom
Размер файла                             : 1,20 Гбайт
Продолжительность                        : 41 м.
Режим общего битрейта                    : Переменный
Общий поток                              : 4181 Кбит/сек
Коллекция                                : Сошедшие с небес
Сезон                                    : 5
Альбом                                   : Сошедшие с небес, Сезон 5
Альбом/Исполнитель                       : Сошедшие с небес
Часть                                    : 1
Часть/Положение                          : 5
Трек                                     : Найди в себе воина
Трек/Положение                           : 1
Исполнитель                              : Сошедшие с небес
Жанр                                     : Sci-Fi & Fantasy
Тип содержимого                          : TV Show
Дата записи                              : 2015
Дата кодирования                         : UTC 2015-06-30 19:00:13
Программа кодирования                    : Yamb 2.1.0.0 [http:/yamb.unite-video.com] / LostCoder
Правообладатель                          : LostFilm.TV (c)
Обложка                                  : Yes
Примечание                               : В результате инопланетное вторжения на Землю один из сыновей профессора истории Тома Мэйсона попадает в плен, а жена гибнет. Она оказалась одной из миллионов людей, ставших жертвами пришельцев. Люди, которым повезло выжить, вступают в партизанские отряды,
Part_ID                                  : 501

Видео
Идентификатор                            : 1
Формат                                   : AVC
Формат/Информация                        : Advanced Video Codec
Профиль формата                          :
Параметр CABAC формата                   : Нет
Параметр ReFrames формата                : 2 кадра
Идентификатор кодека                     : avc1
Идентификатор кодека/Информация          : Advanced Video Coding
Продолжительность                        : 41 м.
Битрейт                                  : 4000 Кбит/сек
Максимальный битрейт                     : 9834 Кбит/сек
Ширина                                   : 1280 пикселей
Высота                                   : 720 пикселей
Соотношение сторон                       : 16:9
Режим частоты кадров                     : Переменный
Частота кадров                           : 23,976 кадра/сек
Минимальная частота кадров               : 23,974 кадра/сек
Максимальная частота кадров              : 23,981 кадра/сек
Цветовое пространство                    : YUV
Субдискретизация насыщенности            : 4:2:0
Битовая глубина                          : 8 бит
Тип развёртки                            : Прогрессивная
Бит/(Пиксели*Кадры)                      : 0.181
Размер потока                            : 1,13 Гбайт (93%)
Библиотека кодирования                   : x264 core 112 r1834 a51816a
Настройки программы                      : cabac=0 / ref=3 / deblock=1:0:0 / analyse=0x1:0x111 / me=hex / subme=7 / psy=1 / psy_rd=1.00:0.00 / mixed_ref=1 / me_range=16 / chroma_me=1 / trellis=1 / 8x8dct=0 / cqm=0 / deadzone=21,11 / fast_pskip=1 / chroma_qp_offset=-2 / threads=12 / sliced_threads=0 / nr=0 / decimate=1 / interlaced=0 / constrained_intra=0 / bframes=3 / b_pyramid=2 / b_adapt=1 / b_bias=0 / direct=1 / weightb=1 / open_gop=0 / weightp=2 / keyint=250 / keyint_min=25 / scenecut=40 / intra_refresh=0 / rc_lookahead=40 / rc=abr / mbtree=1 / bitrate=4000 / ratetol=1.0 / qcomp=0.60 / qpmin=0 / qpmax=51 / qpstep=4 / vbv_maxrate=5000 / vbv_bufsize=2000 / ip_ratio=1.40 / aq=1:1.00 / nal_hrd=none
Язык                                     : English
Основные цвета                           : BT.709
Характеристики трансфера                 : BT.709
Коэффициенты матрицы                     : BT.709

Аудио
Идентификатор                            : 2
Формат                                   : AAC
Формат/Информация                        : Advanced Audio Codec
Профиль формата                          : LC
Идентификатор кодека                     : 40
Продолжительность                        : 41 м.
Вид битрейта                             : Переменный
Битрейт                                  : 265 Кбит/сек
Максимальный битрейт                     : 342 Кбит/сек
Каналы                                   : 2 канала
Расположение каналов                     : Front: L R
Частота                                  : 48,0 КГц
Метод сжатия                             : С потерями
Размер потока                            : 79,1 Мбайт (6%)
Дата кодирования                         : UTC 2015-06-30 19:00:27
01 - Найди в себе воина / Find Your Warrior
02 - Испытание голодом / Hunger Pains
03 - Инкубатор / Hatchlings
04 - Поуп пускается во все тяжкие / Pope Breaks Bad
05 - Второстепенные / Non-Essential Personnel
Внимание! Раздача ведётся путём добавления новых серий; при каждом добавлении создаётся новый торрент.
Чтобы начать докачку новой серии, пользователям необходимо сделать следующее:
1. Остановить скачивание;
2. Удалить старый торрент у себя из клиента (старые серии удалять не надо);
3. Скачать новый торрент и запустить его у себя в клиенте вместо старого, при этом указать клиенту путь в старую папку куда и должно происходить скачивание новых серий. Ваш клиент при этом должен произвести хеширование (проверку) старой папки и будет докачивать только те серии, которых у вас ещё нет. Старые серии при этом не удаляются, а продолжают раздаваться! Eсли вы уже удалили старые серии, то предотвратить повторную закачку старых серий можно, отжав галочку в соответствующих местах при запуске нового торрента.

Скриншоты:




Время раздачи:
24/7 - круглосуточно
(до первых 5-ти сидов - потом по возможности)

 
Не забывайте говорить Спасибо. Не уходите с раздачи!   
Торрент: Зарегистрирован [06 авг 2015, 10:32] Для скачивания .torrent
необходима регистрация
Или скачать с помощью
MediaGet
Статус:
Проверен
 
.torrent скачан: 0 раз
Хэш: 53afc02f4ffb443c677ae6c69810687d0bedec74
Размер: 7.42 ГБ (7 963 593 394 байт)
Стать Автором раздачи
 
Аватара пользователя
 
Раздал: 2.45 ГБ
Скачал: 15.94 МБ
Ратио: 157.696
Сообщения: 337733
Зарегистрирован: 16 янв 2012, 17:03


  • Похожие торренты
    Ответы
    Просмотры
    Последнее сообщение

Вернуться в Видео для мобильных устройств

Ресурс не предоставляет электронные версии произведений, а занимается лишь коллекционированием и каталогизацией ссылок, присылаемых и публикуемых на форуме нашими читателями. Если вы являетесь правообладателем какого-либо представленного материала и не желаете чтобы ссылка на него находилась в нашем каталоге, свяжитесь с нами и мы незамедлительно удалим её. Файлы для обмена на трекере предоставлены пользователями сайта, и администрация не несёт ответственности за их содержание. Просьба не заливать файлы, защищенные авторскими правами, а также файлы нелегального содержания!
cron