Шёпот / The Whispers (2015) WEB-DLRip [H.264] (Сезон 1, серии 1-9 из 13) LostFilm [MP4|1280x720]

 
 Статистика раздачи 
Размер: 10.96 ГБ   |  Зарегистрирован: 06 авг 2015, 10:31   |   .torrent скачан: 0 раз
Сидеров: 1  [ 0 байт/сек ]     Личеров: 1  [ 0 байт/сек ]  
  

Шёпот / The Whispers (2015) WEB-DLRip [H.264] (Сезон 1, серии 1-9 из 13) LostFilm [MP4|1280x720]

Сообщение Satch » 06 авг 2015, 10:31

Шёпот / The Whispers (2015) WEB-DLRip [H.264] (Сезон 1, серии 1-9 из 13) LostFilm
«»

Производство: США
Жанр: фантастика, драма

Режиссер: Чарльз Бисон, П.Дж. Пеше, Холли Дэйл
Актеры: Лили Рэйб, Барри Слоан, Майло Вентимилья, Дерек Уэбстер, Брианна Браун, Каталина Дэнис, Кайли Роджерс, Кайл Харрисон и др.

Описание:
«Шепот» — захватывающий проект легендарного Стивена Спилберга и канала ABC, основанный на рассказе «Урочный час» Рэя Брэдбери. Шоу придется по вкусу как любителям фантастики, так и поклонникам мистических триллеров. Талантливая команда сериала, ранее успевшая поработать над такими популярными драмами, как «Убийство» (The Killing) и «Под куполом» (Under the Dome), дает зрителям возможность стать свидетелями расследования серии таинственных происшествий, которые были совершены детьми по приказу их вымышленного друга.

Когда несколько юных жителей Вашингтона начинают говорить о появлении в своей жизни воображаемого друга, взрослые не придают этому большого значения. Однако новый нематериальный приятель детишек отдает им странные приказы, а его игры начинают приобретать все более опасный характер. К расследованию череды загадочных инцидентов приступает агент ФБР Клэр Бенниган, тяжело переживающая гибель своего мужа. Она еще не знает, что ее сын тоже начал общаться с таинственным существом. В это же время сотрудник Министерства обороны США Уэс Лоуренс отправляется на другой конец света, где посреди пустыни Сахара обнаруживает нечто, с виду напоминающее инопланетный космический корабль. Сопоставив факты, Уэс начинает подозревать, что его находка каким-то образом связана с расследованием Клэр...


Дата мировой премьеры: 1 июня 2015

Продолжительность: ~00:42:00 серия
Качество видео: WEB-DLRip 720p
Перевод: Многоголосый закадровый, профессиональный - LostFilm
Озвучка: Студия «LostFilm»

Видео: AVC/H.264, 1280x720 (16:9), ~4000 Кбит/сек
Аудио: AAC, 2 канала, 244 Кбит/сек - русский (многоголосый закадровый, LostFilm)
Код:
Код: Выделить всё
Полное имя                               : D:\The_Whispers_s1_WEB-DL720p_x264_LostFilm_[NNM-CLUB]\The.Whispers.S01E01.720p.WEB.rus.LostFilm.TV.mp4
Формат                                   : MPEG-4
Профиль формата                          : Base Media
Идентификатор кодека                     : isom
Размер файла                             : 1,23 Гбайт
Продолжительность                        : 42 м.
Режим общего битрейта                    : Переменный
Общий поток                              : 4157 Кбит/сек
Коллекция                                : Шепот
Сезон                                    : 1
Альбом                                   : Шепот, Сезон 1
Альбом/Исполнитель                       : Шепот
Часть                                    : 1
Часть/Положение                          : 1
Трек                                     : Видишь, крестик нарисован
Трек/Положение                           : 1
Исполнитель                              : Шепот
Жанр                                     : Drama
Тип содержимого                          : TV Show
Дата записи                              : 2015
Дата кодирования                         : UTC 2015-06-02 21:52:15
Дата пометки                             : UTC 2015-06-02 21:52:15
Программа кодирования                    : Yamb 2.1.0.0 [http:/yamb.unite-video.com] / LostCoder
Правообладатель                          : LostFilm.TV (c)
Обложка                                  : Yes
Примечание                               : Когда несколько юных жителей Вашингтона начинают говорить о появлении в своей жизни воображаемого друга, взрослые не придают этому значения. Однако новый приятель детишек отдает им странные приказы, а его игры приобретают все более опасный характер.
Part_ID                                  : 101

Видео
Идентификатор                            : 1
Формат                                   : AVC
Формат/Информация                        : Advanced Video Codec
Профиль формата                          :
Параметр CABAC формата                   : Нет
Параметр ReFrames формата                : 4 кадра
Идентификатор кодека                     : avc1
Идентификатор кодека/Информация          : Advanced Video Coding
Продолжительность                        : 42 м.
Битрейт                                  : 4000 Кбит/сек
Максимальный битрейт                     : 5943 Кбит/сек
Ширина                                   : 1280 пикселей
Высота                                   : 720 пикселей
Соотношение сторон                       : 16:9
Режим частоты кадров                     : Постоянный
Частота кадров                           : 23,976 кадра/сек
Цветовое пространство                    : YUV
Субдискретизация насыщенности            : 4:2:0
Битовая глубина                          : 8 бит
Тип развёртки                            : Прогрессивная
Бит/(Пиксели*Кадры)                      : 0.181
Размер потока                            : 1,15 Гбайт (94%)
Заголовок                                : Imported with GPAC 0.4.6-DEV (internal rev. 5)
Библиотека кодирования                   : x264 core 112 r1834 a51816a
Настройки программы                      : cabac=0 / ref=3 / deblock=1:0:0 / analyse=0x3:0x113 / me=hex / subme=7 / psy=1 / psy_rd=1.00:0.00 / mixed_ref=1 / me_range=16 / chroma_me=1 / trellis=1 / 8x8dct=1 / cqm=0 / deadzone=21,11 / fast_pskip=1 / chroma_qp_offset=-2 / threads=12 / sliced_threads=0 / nr=0 / decimate=1 / interlaced=0 / constrained_intra=0 / bframes=3 / b_pyramid=2 / b_adapt=1 / b_bias=0 / direct=1 / weightb=1 / open_gop=0 / weightp=2 / keyint=250 / keyint_min=25 / scenecut=40 / intra_refresh=0 / rc_lookahead=40 / rc=abr / mbtree=1 / bitrate=4000 / ratetol=1.0 / qcomp=0.60 / qpmin=0 / qpmax=51 / qpstep=4 / vbv_maxrate=5000 / vbv_bufsize=2000 / ip_ratio=1.40 / aq=1:1.00 / nal_hrd=none
Дата кодирования                         : UTC 2015-06-02 14:54:11
Дата пометки                             : UTC 2015-06-02 21:52:44

Аудио
Идентификатор                            : 2
Формат                                   : AAC
Формат/Информация                        : Advanced Audio Codec
Профиль формата                          : LC
Идентификатор кодека                     : 40
Продолжительность                        : 42 м.
Вид битрейта                             : Переменный
Битрейт                                  : 244 Кбит/сек
Максимальный битрейт                     : 327 Кбит/сек
Каналы                                   : 2 канала
Расположение каналов                     : Front: L R
Частота                                  : 48,0 КГц
Метод сжатия                             : С потерями
Размер потока                            : 73,5 Мбайт (6%)
Дата кодирования                         : UTC 2015-06-02 21:52:43
Дата пометки                             : UTC 2015-06-02 21:52:44
01 - Видишь, крестик нарисован / X Marks the Spot
02 - Прятки / Hide & Seek
03 - Столкновение / Collision
04 - Катастрофа / Meltdown
05 - Если копать глубже / What Lies Beneath
06 - Стрелец / The Archer
07 - Чего бы это ни стоило / Whatever It Takes
08 - Опустошённый / A Hollow Man
Внимание! Раздача ведётся путём добавления новых серий; при каждом добавлении создаётся новый торрент.
Чтобы начать докачку новой серии, пользователям необходимо сделать следующее:
1. Остановить скачивание;
2. Удалить старый торрент у себя из клиента (старые серии удалять не надо);
3. Скачать новый торрент и запустить его у себя в клиенте вместо старого, при этом указать клиенту путь в старую папку куда и должно происходить скачивание новых серий. Ваш клиент при этом должен произвести хеширование (проверку) старой папки и будет докачивать только те серии, которых у вас ещё нет. Старые серии при этом не удаляются, а продолжают раздаваться! Eсли вы уже удалили старые серии, то предотвратить повторную закачку старых серий можно, отжав галочку в соответствующих местах при запуске нового торрента.
Скриншоты:




Время раздачи:
24/7 - круглосуточно
(до первых 5-ти сидов - потом по возможности)

 
Не забывайте говорить Спасибо. Не уходите с раздачи!   
Торрент: Зарегистрирован [06 авг 2015, 10:31] Для скачивания .torrent
необходима регистрация
Или скачать с помощью
MediaGet
Статус:
Проверен
 
.torrent скачан: 0 раз
Хэш: dfab2e05d78db3928635ee6bc615e6bb938e411d
Размер: 10.96 ГБ (11 766 509 934 байт)
Стать Автором раздачи
 
Аватара пользователя
 
Раздал: 2.45 ГБ
Скачал: 15.94 МБ
Ратио: 157.696
Сообщения: 337733
Зарегистрирован: 16 янв 2012, 17:03


  • Похожие торренты
    Ответы
    Просмотры
    Последнее сообщение

Вернуться в Видео для мобильных устройств

Ресурс не предоставляет электронные версии произведений, а занимается лишь коллекционированием и каталогизацией ссылок, присылаемых и публикуемых на форуме нашими читателями. Если вы являетесь правообладателем какого-либо представленного материала и не желаете чтобы ссылка на него находилась в нашем каталоге, свяжитесь с нами и мы незамедлительно удалим её. Файлы для обмена на трекере предоставлены пользователями сайта, и администрация не несёт ответственности за их содержание. Просьба не заливать файлы, защищенные авторскими правами, а также файлы нелегального содержания!
cron