Белый человек (4 серии из 4) (Александр Мохов) [2012, боевик, драма, HDTVRip-AVC]

 
 Статистика раздачи 
Размер: 2.55 ГБ   |  Зарегистрирован: 06 авг 2015, 09:59   |   .torrent скачан: 0 раз
Сидеров: 1  [ 0 байт/сек ]     Личеров: 2  [ 0 байт/сек ]  
  

Белый человек (4 серии из 4) (Александр Мохов) [2012, боевик, драма, HDTVRip-AVC]

Сообщение Nakazhu » 06 авг 2015, 09:59

Белый человек (4 серии из 4)

Формат: HDTVRip-AVC, MKV, H.264, AC3
Режиссер: Александр Мохов
Жанр: боевик, драма
Продолжительность: 4 х ~ 00:45:00
Год выпуска: 2012
В ролях: Сергей Плотников, Александр Лазарев-мл., Анастасия Бусыгина, Захар Хунгуреев
Описание:
Федор Ильин - отставной офицер, служивший в горячих точках, - после долгого отсутствия возвращается к себе домой в небольшой провинциальный город. Он совершенно одинок. Дом под снос, где он размещается, заселен гастарбайтерами, и в одной из квартир живет Закир, предприимчивый молодой парень, работающий дворником. Как-то раз в автосервис, куда Ильин устроился работать, приехал бизнесмен, уроженец одной из республик бывшего СССР, с просьбой отремонтировать ему раритетный автомобиль. Ильин, прошедший Афганистан, побывавший там в плену и теперь не слишком благосклонный к выходцам с Востока, грубо отказал клиенту и оказался на улице.



Видео: 1024x576 (1,25:1), 25 fps, AVС (х264), ~1818 kbps avg, 0.123 bit/pixel
Аудио: 48 kHz, АС3, 2 ch, Front: L R ~192.00 kbps avg

General
Complete name : Beliy.chelovek.03.2012.HDTVRip.AVC.mkv
Format : Matroska
Format version : Version 4 / Version 2
File size : 676 MiB
Duration : 46mn 3s
Overall bit rate : 2 051 Kbps
Encoded date : UTC 2015-08-04 20:53:31
Writing application : mkvmerge v8.2.0 ('World of Adventure') 32bit
Writing library : libebml v1.3.1 + libmatroska v1.4.2
DURATION : 00:46:03.392000000
NUMBER_OF_FRAMES : 86356
NUMBER_OF_BYTES : 66321408
_STATISTICS_WRITING_APP : mkvmerge v8.2.0 ('World of Adventure') 32bit
_STATISTICS_WRITING_DATE_UT : 2015-08-04 20:53:31
_STATISTICS_TAGS : BPS DURATION NUMBER_OF_FRAMES NUMBER_OF_BYTES

Video
ID : 1
Format : AVC
Format/Info : Advanced Video Codec
Format profile :
Format settings, CABAC : Yes
Format settings, ReFrames : 8 frames
Codec ID : V_MPEG4/ISO/AVC
Duration : 46mn 3s
Bit rate : 1 818 Kbps
Width : 1 024 pixels
Height : 576 pixels
Display aspect ratio : 16:9
Frame rate mode : Constant
Frame rate : 25.000 fps
Color space : YUV
Chroma subsampling : 4:2:0
Bit depth : 8 bits
Scan type : Progressive
Bits/(Pixel*Frame) : 0.123
Stream size : 599 MiB (89%)
Writing library : x264 core 146 r2538 121396c
Encoding settings : cabac=1 / ref=8 / deblock=1:-1:-1 / analyse=0x3:0x133 / me=umh / subme=9 / psy=1 / psy_rd=1.00:0.00 / mixed_ref=1 / me_range=24 / chroma_me=1 / trellis=2 / 8x8dct=1 / cqm=0 / deadzone=21,11 / fast_pskip=1 / chroma_qp_offset=-2 / threads=12 / lookahead_threads=1 / sliced_threads=0 / nr=0 / decimate=1 / interlaced=0 / bluray_compat=0 / constrained_intra=0 / bframes=6 / b_pyramid=2 / b_adapt=2 / b_bias=0 / direct=3 / weightb=1 / open_gop=0 / weightp=2 / keyint=250 / keyint_min=25 / scenecut=40 / intra_refresh=0 / rc_lookahead=60 / rc=crf / mbtree=1 / crf=18.0 / qcomp=0.60 / qpmin=10 / qpmax=51 / qpstep=4 / vbv_maxrate=62500 / vbv_bufsize=78125 / crf_max=0.0 / nal_hrd=none / filler=0 / ip_ratio=1.40 / aq=1:1.00
Language : Russian
Default : Yes
Forced : No
DURATION : 00:46:03.480000000
NUMBER_OF_FRAMES : 69087
NUMBER_OF_BYTES : 641527925
_STATISTICS_WRITING_APP : mkvmerge v8.2.0 ('World of Adventure') 32bit
_STATISTICS_WRITING_DATE_UT : 2015-08-04 20:53:31
_STATISTICS_TAGS : BPS DURATION NUMBER_OF_FRAMES NUMBER_OF_BYTES

Audio
ID : 2
Format : AC-3
Format/Info : Audio Coding 3
Mode extension : CM (complete main)
Format settings, Endianness : Big
Codec ID : A_AC3
Duration : 46mn 3s
Bit rate mode : Constant
Bit rate : 192 Kbps
Channel(s) : 2 channels
Channel positions : Front: L R
Sampling rate : 48.0 KHz
Compression mode : Lossy
Stream size : 63.3 MiB (9%)
Language : Russian
Default : Yes
Forced : No





 
Не забывайте говорить Спасибо. Не уходите с раздачи!   
Торрент: Зарегистрирован [06 авг 2015, 09:59] Для скачивания .torrent
необходима регистрация
Или скачать с помощью
MediaGet
Статус:
Проверен
 
.torrent скачан: 0 раз
Хэш: d09673809599e67df01079645a5e9609b11c1600
Размер: 2.55 ГБ (2 739 101 369 байт)
Стать Автором раздачи
 
 
Раздал: 0 байт
Скачал: 0 байт
Ратио: Inf.
Сообщения: 358883
Зарегистрирован: 17 апр 2014, 13:57


  • Похожие торренты
    Ответы
    Просмотры
    Последнее сообщение

Вернуться в Сериалы

Ресурс не предоставляет электронные версии произведений, а занимается лишь коллекционированием и каталогизацией ссылок, присылаемых и публикуемых на форуме нашими читателями. Если вы являетесь правообладателем какого-либо представленного материала и не желаете чтобы ссылка на него находилась в нашем каталоге, свяжитесь с нами и мы незамедлительно удалим её. Файлы для обмена на трекере предоставлены пользователями сайта, и администрация не несёт ответственности за их содержание. Просьба не заливать файлы, защищенные авторскими правами, а также файлы нелегального содержания!
cron