Штамм / The Strain [02x01-04 из 13] (2015) WEB-DL 720p | OMSKBIRD records

 
 Статистика раздачи 
Размер: 6.54 ГБ   |  Зарегистрирован: 05 авг 2015, 00:03   |   .torrent скачан: 118 раз
Сидеров: 11  [ 0 байт/сек ]     Личеров: 49  [ 0 байт/сек ]  
  

Штамм / The Strain [02x01-04 из 13] (2015) WEB-DL 720p | OMSKBIRD records

Сообщение Satch » 05 авг 2015, 00:03




Информация о фильме
Название: Штамм
Оригинальное название: The Strain
Год выхода: 2015
Жанр: Ужасы, фантастика, драма
Режиссер: Гильермо дель Торо, Дэвид Семел / Guillermo del Toro, David Semel
В ролях: Кори Столл (доктор Эфрам Гудвэзер), Кевин Дюран (Василий Фет), Натали Браун (Келли Гудвезер), Шон Эстин (Джим Кент), Дэвид Брэдли (Эбрахам Сетракян)
О фильме:
В аэропорту Нью-Йорка экстренно приземляется самолет, полный мертвецов. Для выяснения обстоятельств их смерти на борт направляются ученые, возглавляемые лучшим городским эпидемиологом Эфраимом Гудвезером (Кори Столл). В ходе исследований становится ясно, что пассажиры заражены вирусом вампиризма, который грозит перерасти в масштабную эпидемию, способную погубить все человечество. В обществе нарастает паника, а вызов болезни готовы бросить всего несколько человек: доктор Гудвезер, его команда медиков и группа обладающих специальными знаниями горожан, в состав которой войдет и крысолов по имени Василий Фет (Кевин Дюран).


Страна: США

Продолжительность: ~ 00:58:10 снрия
Перевод: Любительский многоголосый | OMSKBIRD records

Файл
Кодек: MPEG-4 AVC/H.264
Качество: WEB-DL 720p
Видео: 1280x720 (1.778), 23.976 fps, ~3823 kbps
Звук:
Аудио rus: AC-3, 48 KHz, 6 ch, 384 kbps | OMSKBIRD records
Аудио eng: AC-3, 48 KHz, 6 ch, 384 kbps
Субтитры: английский

Семпл

Релиз-группа:
Роли озвучивали: Ольга Федорова, Павел Ярощик, Алексей Гнеушев, Алекс Дьяк и Максим Максимов
Перевод: Лилия Кушнаренко
Звукорежиссер: Павел Квентов
Релиз подготовил: Skyns61
Сборка, работа со звуком: Skyns61
01. Бруклин, Нью-Йорк (BK, NY)
02. Любыми средствами /By Any Means
03. Форт неповиновения /Fort Defiance
04. Серебряный Ангел /The Silver Angel
Общее
Уникальный идентификатор : 192487587803603038365706554687800346395 (0x90CFC2CC230F0F6998EA7030250E071B)
Полное имя : G:FilmsThe.Strain.S02The.Strain.S02E01.720p.WEB-DL.OmskBird.DD5.1.mkv
Формат : Matroska
Версия формата : Version 4 / Version 2
Размер файла : 1,90 Гбайт
Продолжительность : 58 м.
Общий поток : 4684 Кбит/сек
Дата кодирования : UTC 2015-07-19 08:52:47
Программа кодирования : mkvmerge v8.1.0 ('Psychedelic Postcard') 64bit
Библиотека кодирования : libebml v1.3.1 + libmatroska v1.4.2
DURATION : 00:58:12.512000000
NUMBER_OF_FRAMES : 109141
NUMBER_OF_BYTES : 167640576
_STATISTICS_WRITING_APP : mkvmerge v8.1.0 ('Psychedelic Postcard') 64bit
_STATISTICS_WRITING_DATE_UTC : 2015-07-19 08:52:47
_STATISTICS_TAGS : BPS DURATION NUMBER_OF_FRAMES NUMBER_OF_BYTES

Видео
Идентификатор : 1
Формат : AVC
Формат/Информация : Advanced Video Codec
Профиль формата : High@L3.1
Параметр CABAC формата : Нет
Параметр ReFrames формата : 2 кадра
Идентификатор кодека : V_MPEG4/ISO/AVC
Продолжительность : 58 м.
Битрейт : 3823 Кбит/сек
Ширина : 1280 пикселей
Высота : 720 пикселей
Соотношение сторон : 16:9
Режим частоты кадров : Постоянный
Частота кадров : 23,976 кадра/сек
Цветовое пространство : YUV
Субдискретизация насыщенности : 4:2:0
Битовая глубина : 8 бит
Тип развёртки : Прогрессивная
Бит/(Пиксели*Кадры) : 0.173
Размер потока : 1,55 Гбайт (82%)
Язык : English
Default : Да
Forced : Нет
Основные цвета : BT.709
Характеристики трансфера : BT.709
Коэффициенты матрицы : BT.709
colour_range : Limited

Аудио #1
Идентификатор : 2
Формат : AC-3
Формат/Информация : Audio Coding 3
Расширение режима : CM (complete main)
Параметр Endianness формата : Big
Идентификатор кодека : A_AC3
Продолжительность : 58 м.
Вид битрейта : Постоянный
Битрейт : 384 Кбит/сек
Каналы : 6 каналов
Расположение каналов : Front: L C R, Side: L R, LFE
Частота : 48,0 КГц
Битовая глубина : 16 бит
Метод сжатия : С потерями
Размер потока : 160 Мбайт (8%)
Заголовок : OmskBird 5.1
Язык : Russian
Default : Да
Forced : Нет

Аудио #2
Идентификатор : 3
Формат : AC-3
Формат/Информация : Audio Coding 3
Расширение режима : CM (complete main)
Параметр Endianness формата : Big
Идентификатор кодека : A_AC3
Продолжительность : 58 м.
Вид битрейта : Постоянный
Битрейт : 384 Кбит/сек
Каналы : 6 каналов
Расположение каналов : Front: L C R, Side: L R, LFE
Частота : 48,0 КГц
Битовая глубина : 16 бит
Метод сжатия : С потерями
Размер потока : 160 Мбайт (8%)
Заголовок : original 5.1
Язык : English
Default : Нет
Forced : Нет

Текст
Идентификатор : 4
Формат : UTF-8
Идентификатор кодека : S_TEXT/UTF8
Идентификатор кодека/Информация : UTF-8 Plain Text
Заголовок : CC
Язык : English
Default : Нет
Forced : Нет

Когда раздача ведётся путём добавления новых серий, при каждом добавлении создётся новый торрент. Чтобы начать докачку новой серии, пользователям необходимо сделать следующее:
(1) остановить скачивание,
(2) удалить старый торрент у себя из клиента (старые серии удалять не надо),
(3) скачать новый торрент и запустить его у себя в клиенте вместо старого, при этом указать клиенту путь в старую папку, куда и должно происходить скачивание новых серий.
Ваш клиент при этом должен произвести хеширование (проверку) старой папки (если не производит сам - помогите ему сделать это), и будет докачивать только те серии, которых у вас ещё нет. Старые серии при этом не удаляются, а продолжают раздаваться!
Eсли вы уже удалили старые серии, то предотвратить повторную закачку старых серий можно, отжав галочку в соответсвующих местах при запуске нового торрента. По возможности, желательно не удалять старые серии как можно дольше, чтобы релизёр не столько продолжал раздавать старые серии, а смог сконцентрироваться на новых.


Релиз от: skyns61
 
Не забывайте говорить Спасибо. Не уходите с раздачи!   
Торрент: Зарегистрирован [05 авг 2015, 00:03] Для скачивания .torrent
необходима регистрация
Или скачать с помощью
MediaGet
Статус:
Проверен
 
.torrent скачан: 118 раз
Хэш: c43e9504f92b0aecb25c64b53cb860bac7e35598
Размер: 6.54 ГБ (7 027 469 924 байт)
Стать Автором раздачи
 
Аватара пользователя
 
Раздал: 2.45 ГБ
Скачал: 15.94 МБ
Ратио: 157.696
Сообщения: 337733
Зарегистрирован: 16 янв 2012, 17:03


  • Похожие торренты
    Ответы
    Просмотры
    Последнее сообщение

Вернуться в Сериалы

Ресурс не предоставляет электронные версии произведений, а занимается лишь коллекционированием и каталогизацией ссылок, присылаемых и публикуемых на форуме нашими читателями. Если вы являетесь правообладателем какого-либо представленного материала и не желаете чтобы ссылка на него находилась в нашем каталоге, свяжитесь с нами и мы незамедлительно удалим её. Файлы для обмена на трекере предоставлены пользователями сайта, и администрация не несёт ответственности за их содержание. Просьба не заливать файлы, защищенные авторскими правами, а также файлы нелегального содержания!
cron