Remember the first people (Native American clips) (2015) WEBRip [H.264/720p-LQ]

 
 Статистика раздачи 
Размер: 3.79 ГБ   |  Зарегистрирован: 03 авг 2015, 00:32   |   .torrent скачан: 0 раз
Сидеров: 1  [ 0 байт/сек ]     Личеров: 0  [ 0 байт/сек ]  
  

Remember the first people (Native American clips) (2015) WEBRip [H.264/720p-LQ]

Сообщение Seepas » 03 авг 2015, 00:32

Remember the first people (Native American clips) (2015) WEBRip [H.264/720p-LQ]

Жанр: Native American, Folk, New Age, Ethno

Описание:
Индейская музыка - музыка, которая используется, создается или выполняется коренными американцами в Соединенных Штатах и людьми индейцев Канады Канады, определенно традиционной племенной музыки. В дополнение к традиционной музыке индейских групп, там теперь существуют межплеменные жанры, а также отличные индейские поджанры популярной музыки включая: скала, блюз, хип-хоп, классический, музыка фильма, и регги...

Траклист:
01. Blue Chip Orchestra - Ate Heye Lo [03:53]
02. The Wings (Native American Music) [23:51]
03. Big City Indians Earth Is Crying - Dry Her Tears - Earth Hour Song [05:00]
04. Nature - Song for Mornings Stars [02:36]
05. Eyes of the Wolves (Native american music) [04:48]
06. Nature's Voice (Native American Music) [13:46]
07. Pieces Of The Puzzle (Native american music) [14:05]
08. B -Tribe - Hablando [02:44]
09. Micki Free - Jimi Hendrix Classic Voodoo Chile [08:14]
10. Give Thanks to the Creator(Native American Music) [15:47]
11. Honor To The Mother Earth (Native American Music) [13:11]
12. Native Americans (Bury My Heart At Wounded Knee) [08:26]
13. Man and Beast ( best of Native American Music) [25:38]
14. Nature - Harmony Live [01:39]
15. Sihasin -Dream [04:22]
16. Thunder Spirit (Native american music) [04:17]
17. Well Balanced (Native American Music) [05:31]
18. Wolfsheart - The Call Of The Canyons [05:39]
19. Nature - Nahoma [03:51]
20. Brule - Indian Summer Showcase 2012 [b](Full Concert)[/b] [01:06:15]
Продолжительность: 03:53:43
Качество видео: WEBRip

Видео: AVC/H.264, 1280x720, ~25.000 fps, 2 243 Kbps (0.097 bit/pixel)
Аудио: AAC, 2 ch, 192 Kbps, VBR
Код:
Код: Выделить всё
Общее
Полное имя                               : F:\Клипы\Native american\Remember the first people (Native American clips)\01. Blue Chip Orchestra - Ate Heye Lo.mp4
Формат                                   : MPEG-4
Профиль формата                          : Base Media / Version 2
Идентификатор кодека                     : mp42
Размер файла                             : 67,9 Мбайт
Продолжительность                        : 3 м. 53 с.
Режим общего битрейта                    : Переменный
Общий поток                              : 2437 Кбит/сек
Дата кодирования                         : UTC 2015-04-22 12:27:01
Дата пометки                             : UTC 2015-04-22 12:27:01
gsst                                     : 0
gstd                                     : 233778
gssd                                     : BC37A1E04HH1434180458923542
gshh                                     : r1---sn-a5uuxaxjvh-gpme.googlevideo.com

Видео
Идентификатор                            : 1
Формат                                   : AVC
Формат/Информация                        : Advanced Video Codec
Профиль формата                          :
Параметр CABAC формата                   : Да
Параметр ReFrames формата                : 1 кадр
Параметр GOP формата                     : M=1, N=60
Идентификатор кодека                     : avc1
Идентификатор кодека/Информация          : Advanced Video Coding
Продолжительность                        : 3 м. 53 с.
Битрейт                                  : 2243 Кбит/сек
Максимальный битрейт                     : 9081 Кбит/сек
Ширина                                   : 1280 пикселей
Высота                                   : 720 пикселей
Соотношение сторон                       : 16:9
Режим частоты кадров                     : Постоянный
Частота кадров                           : 25,000 кадров/сек
Цветовое пространство                    : YUV
Субдискретизация насыщенности            : 4:2:0
Битовая глубина                          : 8 бит
Тип развёртки                            : Прогрессивная
Бит/(Пиксели*Кадры)                      : 0.097
Размер потока                            : 62,5 Мбайт (92%)
Дата кодирования                         : UTC 1970-01-01 00:00:00
Дата пометки                             : UTC 2015-04-22 12:27:02

Аудио
Идентификатор                            : 2
Формат                                   : AAC
Формат/Информация                        : Advanced Audio Codec
Профиль формата                          : LC
Идентификатор кодека                     : 40
Продолжительность                        : 3 м. 53 с.
Вид битрейта                             : Переменный
Битрейт                                  : 192 Кбит/сек
Максимальный битрейт                     : 203 Кбит/сек
Каналы                                   : 2 канала
Расположение каналов                     : Front: L R
Частота                                  : 44,1 КГц
Метод сжатия                             : С потерями
Размер потока                            : 5,35 Мбайт (8%)
Заголовок                                : IsoMedia File Produced by Google, 5-11-2011
Язык                                     : English
Дата кодирования                         : UTC 2015-04-22 12:27:02
Дата пометки                             : UTC 2015-04-22 12:27:02

Общее
Полное имя                               : F:\Клипы\Native american\Remember the first people (Native American clips)\02. The Wings (Native American Music).mp4
Формат                                   : MPEG-4
Профиль формата                          : Base Media / Version 2
Идентификатор кодека                     : mp42
Размер файла                             : 390 Мбайт
Продолжительность                        : 23 м.
Режим общего битрейта                    : Переменный
Общий поток                              : 2283 Кбит/сек
Дата кодирования                         : UTC 2015-04-01 18:56:47
Дата пометки                             : UTC 2015-04-01 18:56:47
gsst                                     : 0
gstd                                     : 1431973
gssd                                     : B0AFCDACBHM1436165435873491
gshh                                     : r12---sn-5go7ln7z.googlevideo.com

Видео
Идентификатор                            : 1
Формат                                   : AVC
Формат/Информация                        : Advanced Video Codec
Профиль формата                          :
Параметр CABAC формата                   : Да
Параметр ReFrames формата                : 1 кадр
Параметр GOP формата                     : M=1, N=60
Идентификатор кодека                     : avc1
Идентификатор кодека/Информация          : Advanced Video Coding
Продолжительность                        : 23 м.
Битрейт                                  : 2089 Кбит/сек
Максимальный битрейт                     : 6550 Кбит/сек
Ширина                                   : 1280 пикселей
Высота                                   : 720 пикселей
Соотношение сторон                       : 16:9
Режим частоты кадров                     : Постоянный
Частота кадров                           : 23,976 кадра/сек
Цветовое пространство                    : YUV
Субдискретизация насыщенности            : 4:2:0
Битовая глубина                          : 8 бит
Тип развёртки                            : Прогрессивная
Бит/(Пиксели*Кадры)                      : 0.095
Размер потока                            : 356 Мбайт (91%)
Дата кодирования                         : UTC 1970-01-01 00:00:00
Дата пометки                             : UTC 2015-04-01 18:57:10

Аудио
Идентификатор                            : 2
Формат                                   : AAC
Формат/Информация                        : Advanced Audio Codec
Профиль формата                          : LC
Идентификатор кодека                     : 40
Продолжительность                        : 23 м.
Вид битрейта                             : Переменный
Битрейт                                  : 192 Кбит/сек
Максимальный битрейт                     : 201 Кбит/сек
Каналы                                   : 2 канала
Расположение каналов                     : Front: L R
Частота                                  : 44,1 КГц
Метод сжатия                             : С потерями
Размер потока                            : 32,8 Мбайт (8%)
Заголовок                                : IsoMedia File Produced by Google, 5-11-2011
Язык                                     : English
Дата кодирования                         : UTC 2015-04-01 18:57:05
Дата пометки                             : UTC 2015-04-01 18:57:10

Общее
Полное имя                               : F:\Клипы\Native american\Remember the first people (Native American clips)\03. Big City Indians Earth Is Crying - Dry Her Tears - Earth Hour Song.mp4
Формат                                   : MPEG-4
Профиль формата                          : Base Media / Version 2
Идентификатор кодека                     : mp42
Размер файла                             : 64,0 Мбайт
Продолжительность                        : 5 м. 0 с.
Режим общего битрейта                    : Переменный
Общий поток                              : 1789 Кбит/сек
Дата кодирования                         : UTC 2013-03-12 18:44:47
Дата пометки                             : UTC 2013-03-12 18:44:47
gsst                                     : 0
gstd                                     : 300163
gssd                                     : B4A7DAFA4MH1379613763776049
gshh                                     : r16---sn-aiglln7d.c.youtube.com

Видео
Идентификатор                            : 1
Формат                                   : AVC
Формат/Информация                        : Advanced Video Codec
Профиль формата                          :
Параметр CABAC формата                   : Да
Параметр ReFrames формата                : 1 кадр
Идентификатор кодека                     : avc1
Идентификатор кодека/Информация          : Advanced Video Coding
Продолжительность                        : 5 м. 0 с.
Битрейт                                  : 1594 Кбит/сек
Максимальный битрейт                     : 4544 Кбит/сек
Ширина                                   : 1280 пикселей
Высота                                   : 720 пикселей
Соотношение сторон                       : 16:9
Режим частоты кадров                     : Постоянный
Частота кадров                           : 25,000 кадров/сек
Цветовое пространство                    : YUV
Субдискретизация насыщенности            : 4:2:0
Битовая глубина                          : 8 бит
Тип развёртки                            : Прогрессивная
Бит/(Пиксели*Кадры)                      : 0.069
Размер потока                            : 57,0 Мбайт (89%)
Дата кодирования                         : UTC 1970-01-01 00:00:00
Дата пометки                             : UTC 2013-03-12 18:44:52

Аудио
Идентификатор                            : 2
Формат                                   : AAC
Формат/Информация                        : Advanced Audio Codec
Профиль формата                          : LC
Идентификатор кодека                     : 40
Продолжительность                        : 5 м. 0 с.
Вид битрейта                             : Переменный
Битрейт                                  : 192 Кбит/сек
Максимальный битрейт                     : 201 Кбит/сек
Каналы                                   : 2 канала
Расположение каналов                     : Front: L R
Частота                                  : 44,1 КГц
Метод сжатия                             : С потерями
Размер потока                            : 6,87 Мбайт (11%)
Заголовок                                : IsoMedia File Produced by Google, 5-11-2011
Дата кодирования                         : UTC 2013-03-12 18:44:50
Дата пометки                             : UTC 2013-03-12 18:44:52

Общее
Полное имя                               : F:\Клипы\Native american\Remember the first people (Native American clips)\04. Nature - Song for Mornings Stars.mp4
Формат                                   : MPEG-4
Профиль формата                          : Base Media / Version 2
Идентификатор кодека                     : mp42
Размер файла                             : 39,6 Мбайт
Продолжительность                        : 2 м. 36 с.
Режим общего битрейта                    : Переменный
Общий поток                              : 2121 Кбит/сек
Дата кодирования                         : UTC 2014-05-28 14:30:09
Дата пометки                             : UTC 2014-05-28 14:30:09
gsst                                     : 0
gstd                                     : 156665
gssd                                     : B0AFCDAC2HM1436352706029011
gshh                                     : r7---sn-5go7ln7e.googlevideo.com

Видео
Идентификатор                            : 1
Формат                                   : AVC
Формат/Информация                        : Advanced Video Codec
Профиль формата                          :
Параметр CABAC формата                   : Да
Параметр ReFrames формата                : 1 кадр
Параметр GOP формата                     : M=1, N=60
Идентификатор кодека                     : avc1
Идентификатор кодека/Информация          : Advanced Video Coding
Продолжительность                        : 2 м. 36 с.
Битрейт                                  : 1926 Кбит/сек
Максимальный битрейт                     : 5672 Кбит/сек
Ширина                                   : 1280 пикселей
Высота                                   : 720 пикселей
Соотношение сторон                       : 16:9
Режим частоты кадров                     : Постоянный
Частота кадров                           : 25,000 кадров/сек
Цветовое пространство                    : YUV
Субдискретизация насыщенности            : 4:2:0
Битовая глубина                          : 8 бит
Тип развёртки                            : Прогрессивная
Бит/(Пиксели*Кадры)                      : 0.084
Размер потока                            : 36,0 Мбайт (91%)
Дата пометки                             : UTC 2014-05-28 14:30:11

Аудио
Идентификатор                            : 2
Формат                                   : AAC
Формат/Информация                        : Advanced Audio Codec
Профиль формата                          : LC
Идентификатор кодека                     : 40
Продолжительность                        : 2 м. 36 с.
Вид битрейта                             : Переменный
Битрейт                                  : 192 Кбит/сек
Максимальный битрейт                     : 204 Кбит/сек
Каналы                                   : 2 канала
Расположение каналов                     : Front: L R
Частота                                  : 44,1 КГц
Метод сжатия                             : С потерями
Размер потока                            : 3,58 Мбайт (9%)
Заголовок                                : IsoMedia File Produced by Google, 5-11-2011
Дата кодирования                         : UTC 2014-05-28 14:30:10
Дата пометки                             : UTC 2014-05-28 14:30:11

Общее
Полное имя                               : F:\Клипы\Native american\Remember the first people (Native American clips)\05. Eyes of the Wolves (Native american music).mp4
Формат                                   : MPEG-4
Профиль формата                          : Base Media / Version 2
Идентификатор кодека                     : mp42
Размер файла                             : 45,5 Мбайт
Продолжительность                        : 4 м. 48 с.
Режим общего битрейта                    : Переменный
Общий поток                              : 1321 Кбит/сек
Дата кодирования                         : UTC 2015-06-17 10:31:11
Дата пометки                             : UTC 2015-06-17 10:31:11
gsst                                     : 0
gstd                                     : 288808
gssd                                     : BC30DE787HM1436166800931094
gshh                                     : r4---sn-a5uuxaxjvh-gpms.googlevideo.com

Видео
Идентификатор                            : 1
Формат                                   : AVC
Формат/Информация                        : Advanced Video Codec
Профиль формата                          :
Параметр CABAC формата                   : Да
Параметр ReFrames формата                : 1 кадр
Параметр GOP формата                     : M=1, N=60
Идентификатор кодека                     : avc1
Идентификатор кодека/Информация          : Advanced Video Coding
Продолжительность                        : 4 м. 48 с.
Битрейт                                  : 1127 Кбит/сек
Максимальный битрейт                     : 3924 Кбит/сек
Ширина                                   : 1280 пикселей
Высота                                   : 720 пикселей
Соотношение сторон                       : 16:9
Режим частоты кадров                     : Постоянный
Частота кадров                           : 29,970 кадров/сек
Цветовое пространство                    : YUV
Субдискретизация насыщенности            : 4:2:0
Битовая глубина                          : 8 бит
Тип развёртки                            : Прогрессивная
Бит/(Пиксели*Кадры)                      : 0.041
Размер потока                            : 38,8 Мбайт (85%)
Дата пометки                             : UTC 2015-06-17 10:31:12

Аудио
Идентификатор                            : 2
Формат                                   : AAC
Формат/Информация                        : Advanced Audio Codec
Профиль формата                          : LC
Идентификатор кодека                     : 40
Продолжительность                        : 4 м. 48 с.
Вид битрейта                             : Переменный
Битрейт                                  : 192 Кбит/сек
Максимальный битрейт                     : 202 Кбит/сек
Каналы                                   : 2 канала
Расположение каналов                     : Front: L R
Частота                                  : 44,1 КГц
Метод сжатия                             : С потерями
Размер потока                            : 6,61 Мбайт (15%)
Заголовок                                : IsoMedia File Produced by Google, 5-11-2011
Язык                                     : English
Дата кодирования                         : UTC 2015-06-17 10:31:12
Дата пометки                             : UTC 2015-06-17 10:31:12

Общее
Полное имя                               : F:\Клипы\Native american\Remember the first people (Native American clips)\06. Nature's Voice (Native American Music).mp4
Формат                                   : MPEG-4
Профиль формата                          : Base Media / Version 2
Идентификатор кодека                     : mp42
Размер файла                             : 230 Мбайт
Продолжительность                        : 13 м.
Режим общего битрейта                    : Переменный
Общий поток                              : 2331 Кбит/сек
Дата кодирования                         : UTC 2014-12-05 20:41:04
Дата пометки                             : UTC 2014-12-05 20:41:04
gsst                                     : 0
gstd                                     : 826745
gssd                                     : B4A7DDA21HM1436166856464391
gshh                                     : r1---sn-4g57kuel.googlevideo.com

Видео
Идентификатор                            : 1
Формат                                   : AVC
Формат/Информация                        : Advanced Video Codec
Профиль формата                          :
Параметр CABAC формата                   : Да
Параметр ReFrames формата                : 1 кадр
Параметр GOP формата                     : M=1, N=60
Идентификатор кодека                     : avc1
Идентификатор кодека/Информация          : Advanced Video Coding
Продолжительность                        : 13 м.
Битрейт                                  : 2137 Кбит/сек
Максимальный битрейт                     : 7748 Кбит/сек
Ширина                                   : 1280 пикселей
Высота                                   : 720 пикселей
Соотношение сторон                       : 16:9
Режим частоты кадров                     : Постоянный
Частота кадров                           : 29,970 кадров/сек
Цветовое пространство                    : YUV
Субдискретизация насыщенности            : 4:2:0
Битовая глубина                          : 8 бит
Тип развёртки                            : Прогрессивная
Бит/(Пиксели*Кадры)                      : 0.077
Размер потока                            : 211 Мбайт (92%)
Дата пометки                             : UTC 2014-12-05 20:41:26

Аудио
Идентификатор                            : 2
Формат                                   : AAC
Формат/Информация                        : Advanced Audio Codec
Профиль формата                          : LC
Идентификатор кодека                     : 40
Продолжительность                        : 13 м.
Вид битрейта                             : Переменный
Битрейт                                  : 192 Кбит/сек
Максимальный битрейт                     : 201 Кбит/сек
Каналы                                   : 2 канала
Расположение каналов                     : Front: L R
Частота                                  : 44,1 КГц
Метод сжатия                             : С потерями
Размер потока                            : 18,9 Мбайт (8%)
Заголовок                                : IsoMedia File Produced by Google, 5-11-2011
Дата кодирования                         : UTC 2014-12-05 20:41:17
Дата пометки                             : UTC 2014-12-05 20:41:26

Общее
Полное имя                               : F:\Клипы\Native american\Remember the first people (Native American clips)\07. Pieces Of The Puzzle (Native american music).mp4
Формат                                   : MPEG-4
Профиль формата                          : Base Media / Version 2
Идентификатор кодека                     : mp42
Размер файла                             : 172 Мбайт
Продолжительность                        : 14 м.
Режим общего битрейта                    : Переменный
Общий поток                              : 1706 Кбит/сек
Дата кодирования                         : UTC 2015-05-19 07:59:40
Дата пометки                             : UTC 2015-05-19 07:59:40
gsst                                     : 0
gstd                                     : 845576
gssd                                     : B4A7DDA67HM1436166490966195
gshh                                     : r7---sn-4g57kuez.googlevideo.com

Видео
Идентификатор                            : 1
Формат                                   : AVC
Формат/Информация                        : Advanced Video Codec
Профиль формата                          :
Параметр CABAC формата                   : Да
Параметр ReFrames формата                : 1 кадр
Идентификатор кодека                     : avc1
Идентификатор кодека/Информация          : Advanced Video Coding
Продолжительность                        : 14 м.
Битрейт                                  : 1511 Кбит/сек
Максимальный битрейт                     : 5667 Кбит/сек
Ширина                                   : 1280 пикселей
Высота                                   : 720 пикселей
Соотношение сторон                       : 16:9
Режим частоты кадров                     : Постоянный
Частота кадров                           : 29,970 кадров/сек
Цветовое пространство                    : YUV
Субдискретизация насыщенности            : 4:2:0
Битовая глубина                          : 8 бит
Тип развёртки                            : Прогрессивная
Бит/(Пиксели*Кадры)                      : 0.055
Размер потока                            : 152 Мбайт (89%)
Дата пометки                             : UTC 2015-05-19 07:59:56

Аудио
Идентификатор                            : 2
Формат                                   : AAC
Формат/Информация                        : Advanced Audio Codec
Профиль формата                          : LC
Идентификатор кодека                     : 40
Продолжительность                        : 14 м.
Вид битрейта                             : Переменный
Битрейт                                  : 192 Кбит/сек
Максимальный битрейт                     : 201 Кбит/сек
Каналы                                   : 2 канала
Расположение каналов                     : Front: L R
Частота                                  : 44,1 КГц
Метод сжатия                             : С потерями
Размер потока                            : 19,4 Мбайт (11%)
Заголовок                                : IsoMedia File Produced by Google, 5-11-2011
Язык                                     : English
Дата кодирования                         : UTC 2015-05-19 07:59:42
Дата пометки                             : UTC 2015-05-19 07:59:56

Общее
Полное имя                               : F:\Клипы\Native american\Remember the first people (Native American clips)\08. B -Tribe - Hablando.mp4
Формат                                   : MPEG-4
Профиль формата                          : Base Media / Version 2
Идентификатор кодека                     : mp42
Размер файла                             : 40,0 Мбайт
Продолжительность                        : 2 м. 44 с.
Режим общего битрейта                    : Переменный
Общий поток                              : 2035 Кбит/сек
Дата кодирования                         : UTC 2011-01-21 18:02:29
Дата пометки                             : UTC 2011-01-21 18:02:29
gsst                                     : 0
gstd                                     : 164680
gssd                                     : BADC23E45MH1351833250566101
gshh                                     : o-o---preferred---sn-4g57kney---v15---nonxt5.c.youtube.com

Видео
Идентификатор                            : 1
Формат                                   : AVC
Формат/Информация                        : Advanced Video Codec
Профиль формата                          :
Параметр CABAC формата                   : Да
Параметр ReFrames формата                : 1 кадр
Идентификатор кодека                     : avc1
Идентификатор кодека/Информация          : Advanced Video Coding
Продолжительность                        : 2 м. 44 с.
Битрейт                                  : 1903 Кбит/сек
Максимальный битрейт                     : 6006 Кбит/сек
Ширина                                   : 1280 пикселей
Высота                                   : 720 пикселей
Соотношение сторон                       : 16:9
Режим частоты кадров                     : Постоянный
Частота кадров                           : 25,000 кадров/сек
Цветовое пространство                    : YUV
Субдискретизация насыщенности            : 4:2:0
Битовая глубина                          : 8 бит
Тип развёртки                            : Прогрессивная
Бит/(Пиксели*Кадры)                      : 0.083
Размер потока                            : 37,4 Мбайт (93%)
Дата кодирования                         : UTC 1970-01-01 00:00:00
Дата пометки                             : UTC 2011-01-21 18:02:32

Аудио
Идентификатор                            : 2
Формат                                   : AAC
Формат/Информация                        : Advanced Audio Codec
Профиль формата                          : LC
Идентификатор кодека                     : 40
Продолжительность                        : 2 м. 44 с.
Вид битрейта                             : Переменный
Битрейт                                  : 128 Кбит/сек
Максимальный битрейт                     : 147 Кбит/сек
Каналы                                   : 2 канала
Расположение каналов                     : Front: L R
Частота                                  : 44,1 КГц
Метод сжатия                             : С потерями
Размер потока                            : 2,51 Мбайт (6%)
Заголовок                                : (C) 2007 Google Inc. v08.13.2007.
Дата кодирования                         : UTC 2011-01-21 18:02:30
Дата пометки                             : UTC 2011-01-21 18:02:32

Общее
Полное имя                               : F:\Клипы\Native american\Remember the first people (Native American clips)\09. Micki Free - Jimi Hendrix Classic Voodoo Chile.mp4
Формат                                   : MPEG-4
Профиль формата                          : Base Media / Version 2
Идентификатор кодека                     : mp42
Размер файла                             : 184 Мбайт
Продолжительность                        : 8 м. 14 с.
Режим общего битрейта                    : Переменный
Общий поток                              : 3127 Кбит/сек
Дата кодирования                         : UTC 2011-04-02 14:09:09
Дата пометки                             : UTC 2011-04-02 14:09:09
gsst                                     : 0
gstd                                     : 494316
gssd                                     : B4A7DA305MH1383589584541205
gshh                                     : r18---sn-5go7ln7e.c.youtube.com

Видео
Идентификатор                            : 1
Формат                                   : AVC
Формат/Информация                        : Advanced Video Codec
Профиль формата                          :
Параметр CABAC формата                   : Да
Параметр ReFrames формата                : 1 кадр
Идентификатор кодека                     : avc1
Идентификатор кодека/Информация          : Advanced Video Coding
Продолжительность                        : 8 м. 14 с.
Битрейт                                  : 2993 Кбит/сек
Максимальный битрейт                     : 6438 Кбит/сек
Ширина                                   : 1280 пикселей
Высота                                   : 720 пикселей
Соотношение сторон                       : 16:9
Режим частоты кадров                     : Переменный
Частота кадров                           : 29,970 кадров/сек
Минимальная частота кадров               : 29,412 кадров/сек
Максимальная частота кадров              : 200,000 кадров/сек
Цветовое пространство                    : YUV
Субдискретизация насыщенности            : 4:2:0
Битовая глубина                          : 8 бит
Тип развёртки                            : Прогрессивная
Бит/(Пиксели*Кадры)                      : 0.108
Размер потока                            : 176 Мбайт (96%)
Дата кодирования                         : UTC 1970-01-01 00:00:00
Дата пометки                             : UTC 2011-04-02 14:09:18

Аудио
Идентификатор                            : 2
Формат                                   : AAC
Формат/Информация                        : Advanced Audio Codec
Профиль формата                          : LC
Идентификатор кодека                     : 40
Продолжительность                        : 8 м. 14 с.
Вид битрейта                             : Переменный
Битрейт                                  : 128 Кбит/сек
Максимальный битрейт                     : 154 Кбит/сек
Каналы                                   : 2 канала
Расположение каналов                     : Front: L R
Частота                                  : 44,1 КГц
Метод сжатия                             : С потерями
Размер потока                            : 7,54 Мбайт (4%)
Заголовок                                : (C) 2007 Google Inc. v08.13.2007.
Дата кодирования                         : UTC 2011-04-02 14:09:14
Дата пометки                             : UTC 2011-04-02 14:09:18

Общее
Полное имя                               : F:\Клипы\Native american\Remember the first people (Native American clips)\10. Give Thanks to the Creator(Native American Music).mp4
Формат                                   : MPEG-4
Профиль формата                          : Base Media / Version 2
Идентификатор кодека                     : mp42
Размер файла                             : 219 Мбайт
Продолжительность                        : 15 м.
Режим общего битрейта                    : Переменный
Общий поток                              : 1941 Кбит/сек
Дата кодирования                         : UTC 2014-09-24 03:26:40
Дата пометки                             : UTC 2014-09-24 03:26:40
gsst                                     : 0
gstd                                     : 947466
gssd                                     : B4A7DDAE6HM1436166952165166
gshh                                     : r6---sn-4g57kuer.googlevideo.com

Видео
Идентификатор                            : 1
Формат                                   : AVC
Формат/Информация                        : Advanced Video Codec
Профиль формата                          :
Параметр CABAC формата                   : Да
Параметр ReFrames формата                : 1 кадр
Параметр GOP формата                     : M=1, N=60
Идентификатор кодека                     : avc1
Идентификатор кодека/Информация          : Advanced Video Coding
Продолжительность                        : 15 м.
Битрейт                                  : 1746 Кбит/сек
Максимальный битрейт                     : 5444 Кбит/сек
Ширина                                   : 1280 пикселей
Высота                                   : 720 пикселей
Соотношение сторон                       : 16:9
Режим частоты кадров                     : Постоянный
Частота кадров                           : 23,976 кадра/сек
Цветовое пространство                    : YUV
Субдискретизация насыщенности            : 4:2:0
Битовая глубина                          : 8 бит
Тип развёртки                            : Прогрессивная
Бит/(Пиксели*Кадры)                      : 0.079
Размер потока                            : 197 Мбайт (90%)
Дата пометки                             : UTC 2014-09-24 03:26:52

Аудио
Идентификатор                            : 2
Формат                                   : AAC
Формат/Информация                        : Advanced Audio Codec
Профиль формата                          : LC
Идентификатор кодека                     : 40
Продолжительность                        : 15 м.
Вид битрейта                             : Переменный
Битрейт                                  : 192 Кбит/сек
Максимальный битрейт                     : 202 Кбит/сек
Каналы                                   : 2 канала
Расположение каналов                     : Front: L R
Частота                                  : 44,1 КГц
Метод сжатия                             : С потерями
Размер потока                            : 21,7 Мбайт (10%)
Заголовок                                : IsoMedia File Produced by Google, 5-11-2011
Дата кодирования                         : UTC 2014-09-24 03:26:48
Дата пометки                             : UTC 2014-09-24 03:26:52

Общее
Полное имя                               : F:\Клипы\Native american\Remember the first people (Native American clips)\11. Honor To The Mother Earth (Native American Music).mp4
Формат                                   : MPEG-4
Профиль формата                          : Base Media / Version 2
Идентификатор кодека                     : mp42
Размер файла                             : 201 Мбайт
Продолжительность                        : 13 м.
Режим общего битрейта                    : Переменный
Общий поток                              : 2131 Кбит/сек
Дата кодирования                         : UTC 2014-12-08 10:12:16
Дата пометки                             : UTC 2014-12-08 10:12:16
gsst                                     : 0
gstd                                     : 791985
gssd                                     : BC37A1E04HM1436353480414269
gshh                                     : r1---sn-a5uuxaxjvh-gpme.googlevideo.com

Видео
Идентификатор                            : 1
Формат                                   : AVC
Формат/Информация                        : Advanced Video Codec
Профиль формата                          :
Параметр CABAC формата                   : Да
Параметр ReFrames формата                : 1 кадр
Параметр GOP формата                     : M=1, N=60
Идентификатор кодека                     : avc1
Идентификатор кодека/Информация          : Advanced Video Coding
Продолжительность                        : 13 м.
Битрейт                                  : 1936 Кбит/сек
Максимальный битрейт                     : 5872 Кбит/сек
Ширина                                   : 1280 пикселей
Высота                                   : 720 пикселей
Соотношение сторон                       : 16:9
Режим частоты кадров                     : Постоянный
Частота кадров                           : 29,970 кадров/сек
Цветовое пространство                    : YUV
Субдискретизация насыщенности            : 4:2:0
Битовая глубина                          : 8 бит
Тип развёртки                            : Прогрессивная
Бит/(Пиксели*Кадры)                      : 0.070
Размер потока                            : 183 Мбайт (91%)
Дата пометки                             : UTC 2014-12-08 10:12:22

Аудио
Идентификатор                            : 2
Формат                                   : AAC
Формат/Информация                        : Advanced Audio Codec
Профиль формата                          : LC
Идентификатор кодека                     : 40
Продолжительность                        : 13 м.
Вид битрейта                             : Переменный
Битрейт                                  : 192 Кбит/сек
Максимальный битрейт                     : 201 Кбит/сек
Каналы                                   : 2 канала
Расположение каналов                     : Front: L R
Частота                                  : 44,1 КГц
Метод сжатия                             : С потерями
Размер потока                            : 18,1 Мбайт (9%)
Заголовок                                : IsoMedia File Produced by Google, 5-11-2011
Дата кодирования                         : UTC 2014-12-08 10:12:20
Дата пометки                             : UTC 2014-12-08 10:12:22

Общее
Полное имя                               : F:\Клипы\Native american\Remember the first people (Native American clips)\12. Native Americans (Bury My Heart At Wounded Knee).mp4
Формат                                   : MPEG-4
Профиль формата                          : Base Media / Version 2
Идентификатор кодека                     : mp42
Размер файла                             : 101 Мбайт
Продолжительность                        : 8 м. 26 с.
Режим общего битрейта                    : Переменный
Общий поток                              : 1677 Кбит/сек
Дата кодирования                         : UTC 2014-11-25 21:45:32
Дата пометки                             : UTC 2014-11-25 21:45:32
gsst                                     : 0
gstd                                     : 506263
gssd                                     : BC30DE785HM1436165225948772
gshh                                     : r2---sn-a5uuxaxjvh-gpms.googlevideo.com

Видео
Идентификатор                            : 1
Формат                                   : AVC
Формат/Информация                        : Advanced Video Codec
Профиль формата                          :
Параметр CABAC формата                   : Да
Параметр ReFrames формата                : 1 кадр
Идентификатор кодека                     : avc1
Идентификатор кодека/Информация          : Advanced Video Coding
Продолжительность                        : 8 м. 26 с.
Битрейт                                  : 1482 Кбит/сек
Максимальный битрейт                     : 4089 Кбит/сек
Ширина                                   : 1280 пикселей
Высота                                   : 720 пикселей
Соотношение сторон                       : 16:9
Режим частоты кадров                     : Постоянный
Частота кадров                           : 25,000 кадров/сек
Цветовое пространство                    : YUV
Субдискретизация насыщенности            : 4:2:0
Битовая глубина                          : 8 бит
Тип развёртки                            : Прогрессивная
Бит/(Пиксели*Кадры)                      : 0.064
Размер потока                            : 89,4 Мбайт (88%)
Дата пометки                             : UTC 2014-11-25 21:45:44

Аудио
Идентификатор                            : 2
Формат                                   : AAC
Формат/Информация                        : Advanced Audio Codec
Профиль формата                          : LC
Идентификатор кодека                     : 40
Продолжительность                        : 8 м. 26 с.
Вид битрейта                             : Переменный
Битрейт                                  : 192 Кбит/сек
Максимальный битрейт                     : 201 Кбит/сек
Каналы                                   : 2 канала
Расположение каналов                     : Front: L R
Частота                                  : 44,1 КГц
Метод сжатия                             : С потерями
Размер потока                            : 11,6 Мбайт (11%)
Заголовок                                : IsoMedia File Produced by Google, 5-11-2011
Дата кодирования                         : UTC 2014-11-25 21:45:41
Дата пометки                             : UTC 2014-11-25 21:45:44

Общее
Полное имя                               : F:\Клипы\Native american\Remember the first people (Native American clips)\13. Man and Beast ( best of Native American Music).mp4
Формат                                   : MPEG-4
Профиль формата                          : Base Media / Version 2
Идентификатор кодека                     : mp42
Размер файла                             : 300 Мбайт
Продолжительность                        : 25 м.
Режим общего битрейта                    : Переменный
Общий поток                              : 1634 Кбит/сек
Дата кодирования                         : UTC 2014-07-15 04:40:03
Дата пометки                             : UTC 2014-07-15 04:40:03
gsst                                     : 0
gstd                                     : 1539110
gssd                                     : BC37A1E0AHM1436165910960935
gshh                                     : r7---sn-a5uuxaxjvh-gpme.googlevideo.com

Видео
Идентификатор                            : 1
Формат                                   : AVC
Формат/Информация                        : Advanced Video Codec
Профиль формата                          :
Параметр CABAC формата                   : Да
Параметр ReFrames формата                : 1 кадр
Параметр GOP формата                     : M=1, N=60
Идентификатор кодека                     : avc1
Идентификатор кодека/Информация          : Advanced Video Coding
Продолжительность                        : 25 м.
Битрейт                                  : 1440 Кбит/сек
Максимальный битрейт                     : 6298 Кбит/сек
Ширина                                   : 1280 пикселей
Высота                                   : 720 пикселей
Соотношение сторон                       : 16:9
Режим частоты кадров                     : Постоянный
Частота кадров                           : 23,976 кадра/сек
Цветовое пространство                    : YUV
Субдискретизация насыщенности            : 4:2:0
Битовая глубина                          : 8 бит
Тип развёртки                            : Прогрессивная
Бит/(Пиксели*Кадры)                      : 0.065
Размер потока                            : 264 Мбайт (88%)
Дата пометки                             : UTC 2014-07-15 04:41:27

Аудио
Идентификатор                            : 2
Формат                                   : AAC
Формат/Информация                        : Advanced Audio Codec
Профиль формата                          : LC
Идентификатор кодека                     : 40
Продолжительность                        : 25 м.
Вид битрейта                             : Переменный
Битрейт                                  : 192 Кбит/сек
Максимальный битрейт                     : 201 Кбит/сек
Каналы                                   : 2 канала
Расположение каналов                     : Front: L R
Частота                                  : 44,1 КГц
Метод сжатия                             : С потерями
Размер потока                            : 35,2 Мбайт (12%)
Заголовок                                : IsoMedia File Produced by Google, 5-11-2011
Дата кодирования                         : UTC 2014-07-15 04:40:52
Дата пометки                             : UTC 2014-07-15 04:41:27

Общее
Полное имя                               : F:\Клипы\Native american\Remember the first people (Native American clips)\14. Nature - Harmony Live.mp4
Формат                                   : MPEG-4
Профиль формата                          : Base Media / Version 2
Идентификатор кодека                     : mp42
Размер файла                             : 35,5 Мбайт
Продолжительность                        : 1 м. 39 с.
Режим общего битрейта                    : Переменный
Общий поток                              : 2998 Кбит/сек
Дата кодирования                         : UTC 2015-01-16 16:14:41
Дата пометки                             : UTC 2015-01-16 16:14:41
gsst                                     : 0
gstd                                     : 99288
gssd                                     : B4A7DDA26HM1436352618471430
gshh                                     : r6---sn-4g57kuel.googlevideo.com

Видео
Идентификатор                            : 1
Формат                                   : AVC
Формат/Информация                        : Advanced Video Codec
Профиль формата                          :
Параметр CABAC формата                   : Да
Параметр ReFrames формата                : 1 кадр
Идентификатор кодека                     : avc1
Идентификатор кодека/Информация          : Advanced Video Coding
Продолжительность                        : 1 м. 39 с.
Битрейт                                  : 2804 Кбит/сек
Максимальный битрейт                     : 5688 Кбит/сек
Ширина                                   : 1280 пикселей
Высота                                   : 720 пикселей
Соотношение сторон                       : 16:9
Режим частоты кадров                     : Постоянный
Частота кадров                           : 25,000 кадров/сек
Цветовое пространство                    : YUV
Субдискретизация насыщенности            : 4:2:0
Битовая глубина                          : 8 бит
Тип развёртки                            : Прогрессивная
Бит/(Пиксели*Кадры)                      : 0.122
Размер потока                            : 33,2 Мбайт (94%)
Дата пометки                             : UTC 2015-01-16 16:14:42

Аудио
Идентификатор                            : 2
Формат                                   : AAC
Формат/Информация                        : Advanced Audio Codec
Профиль формата                          : LC
Идентификатор кодека                     : 40
Продолжительность                        : 1 м. 39 с.
Вид битрейта                             : Переменный
Битрейт                                  : 192 Кбит/сек
Максимальный битрейт                     : 203 Кбит/сек
Каналы                                   : 2 канала
Расположение каналов                     : Front: L R
Частота                                  : 44,1 КГц
Метод сжатия                             : С потерями
Размер потока                            : 2,27 Мбайт (6%)
Заголовок                                : IsoMedia File Produced by Google, 5-11-2011
Дата кодирования                         : UTC 2015-01-16 16:14:42
Дата пометки                             : UTC 2015-01-16 16:14:42

Общее
Полное имя                               : F:\Клипы\Native american\Remember the first people (Native American clips)\15. Sihasin -Dream.mp4
Формат                                   : MPEG-4
Профиль формата                          : Base Media / Version 2
Идентификатор кодека                     : mp42
Размер файла                             : 83,2 Мбайт
Продолжительность                        : 4 м. 22 с.
Режим общего битрейта                    : Переменный
Общий поток                              : 2661 Кбит/сек
Дата кодирования                         : UTC 2014-03-03 05:38:29
Дата пометки                             : UTC 2014-03-03 05:38:29

Видео
Идентификатор                            : 1
Формат                                   : AVC
Формат/Информация                        : Advanced Video Codec
Профиль формата                          :
Параметр CABAC формата                   : Да
Параметр ReFrames формата                : 4 кадра
Идентификатор кодека                     : avc1
Идентификатор кодека/Информация          : Advanced Video Coding
Продолжительность                        : 4 м. 22 с.
Битрейт                                  : 2500 Кбит/сек
Ширина                                   : 1280 пикселей
Высота                                   : 720 пикселей
Соотношение сторон                       : 16:9
Режим частоты кадров                     : Постоянный
Частота кадров                           : 23,976 кадра/сек
Цветовое пространство                    : YUV
Субдискретизация насыщенности            : 4:2:0
Битовая глубина                          : 8 бит
Тип развёртки                            : Прогрессивная
Бит/(Пиксели*Кадры)                      : 0.113
Размер потока                            : 78,1 Мбайт (94%)
Библиотека кодирования                   : x264 core 140 r2377 1ca7bb9
Настройки программы                      : cabac=1 / ref=3 / deblock=1:0:0 / analyse=0x3:0x113 / me=hex / subme=7 / psy=1 / psy_rd=1.00:0.00 / mixed_ref=1 / me_range=16 / chroma_me=1 / trellis=1 / 8x8dct=1 / cqm=0 / deadzone=21,11 / fast_pskip=1 / chroma_qp_offset=-2 / threads=12 / lookahead_threads=2 / sliced_threads=0 / nr=0 / decimate=1 / interlaced=0 / bluray_compat=0 / stitchable=1 / constrained_intra=0 / bframes=3 / b_pyramid=2 / b_adapt=1 / b_bias=0 / direct=1 / weightb=1 / open_gop=0 / weightp=2 / keyint=72 / keyint_min=24 / scenecut=40 / intra_refresh=0 / rc_lookahead=40 / rc=2pass / mbtree=1 / bitrate=2500 / ratetol=1.0 / qcomp=0.60 / qpmin=5 / qpmax=69 / qpstep=4 / cplxblur=20.0 / qblur=0.5 / vbv_maxrate=3750 / vbv_bufsize=12500 / nal_hrd=none / filler=0 / ip_ratio=1.40 / aq=1:1.00
Дата кодирования                         : UTC 2014-03-03 05:38:29
Дата пометки                             : UTC 2014-03-03 05:38:29
Основные цвета                           : BT.709
Характеристики трансфера                 : BT.709
Коэффициенты матрицы                     : BT.709

Аудио
Идентификатор                            : 2
Формат                                   : AAC
Формат/Информация                        : Advanced Audio Codec
Профиль формата                          : LC
Идентификатор кодека                     : 40
Продолжительность                        : 4 м. 22 с.
Вид битрейта                             : Переменный
Битрейт                                  : 160 Кбит/сек
Каналы                                   : 2 канала
Расположение каналов                     : Front: L R
Частота                                  : 48,0 КГц
Метод сжатия                             : С потерями
Размер потока                            : 5,00 Мбайт (6%)
Дата кодирования                         : UTC 2014-03-03 05:38:29
Дата пометки                             : UTC 2014-03-03 05:38:29

Общее
Полное имя                               : F:\Клипы\Native american\Remember the first people (Native American clips)\16. Thunder Spirit (Native american music).mp4
Формат                                   : MPEG-4
Профиль формата                          : Base Media / Version 2
Идентификатор кодека                     : mp42
Размер файла                             : 59,6 Мбайт
Продолжительность                        : 4 м. 17 с.
Режим общего битрейта                    : Переменный
Общий поток                              : 1942 Кбит/сек
Дата кодирования                         : UTC 2015-03-10 07:49:21
Дата пометки                             : UTC 2015-03-10 07:49:21
gsst                                     : 0
gstd                                     : 257415
gssd                                     : B4A7DDAA5HM1436165996789832
gshh                                     : r5---sn-4g57kued.googlevideo.com

Видео
Идентификатор                            : 1
Формат                                   : AVC
Формат/Информация                        : Advanced Video Codec
Профиль формата                          :
Параметр CABAC формата                   : Да
Параметр ReFrames формата                : 1 кадр
Параметр GOP формата                     : M=1, N=60
Идентификатор кодека                     : avc1
Идентификатор кодека/Информация          : Advanced Video Coding
Продолжительность                        : 4 м. 17 с.
Битрейт                                  : 1747 Кбит/сек
Максимальный битрейт                     : 4342 Кбит/сек
Ширина                                   : 1280 пикселей
Высота                                   : 720 пикселей
Соотношение сторон                       : 16:9
Режим частоты кадров                     : Постоянный
Частота кадров                           : 29,970 кадров/сек
Цветовое пространство                    : YUV
Субдискретизация насыщенности            : 4:2:0
Битовая глубина                          : 8 бит
Тип развёртки                            : Прогрессивная
Бит/(Пиксели*Кадры)                      : 0.063
Размер потока                            : 53,6 Мбайт (90%)
Дата кодирования                         : UTC 1970-01-01 00:00:00
Дата пометки                             : UTC 2015-03-10 07:49:23

Аудио
Идентификатор                            : 2
Формат                                   : AAC
Формат/Информация                        : Advanced Audio Codec
Профиль формата                          : LC
Идентификатор кодека                     : 40
Продолжительность                        : 4 м. 17 с.
Вид битрейта                             : Переменный
Битрейт                                  : 192 Кбит/сек
Максимальный битрейт                     : 202 Кбит/сек
Каналы                                   : 2 канала
Расположение каналов                     : Front: L R
Частота                                  : 44,1 КГц
Метод сжатия                             : С потерями
Размер потока                            : 5,89 Мбайт (10%)
Заголовок                                : IsoMedia File Produced by Google, 5-11-2011
Язык                                     : English
Дата кодирования                         : UTC 2015-03-10 07:49:22
Дата пометки                             : UTC 2015-03-10 07:49:23

Общее
Полное имя                               : F:\Клипы\Native american\Remember the first people (Native American clips)\17. Well Balanced (Native American Music).mp4
Формат                                   : MPEG-4
Профиль формата                          : Base Media / Version 2
Идентификатор кодека                     : mp42
Размер файла                             : 90,2 Мбайт
Продолжительность                        : 5 м. 31 с.
Режим общего битрейта                    : Переменный
Общий поток                              : 2284 Кбит/сек
Дата кодирования                         : UTC 2014-12-07 17:07:46
Дата пометки                             : UTC 2014-12-07 17:07:46
gsst                                     : 0
gstd                                     : 331395
gssd                                     : B4A7DDA65HM1436353091547586
gshh                                     : r5---sn-4g57kuez.googlevideo.com

Видео
Идентификатор                            : 1
Формат                                   : AVC
Формат/Информация                        : Advanced Video Codec
Профиль формата                          :
Параметр CABAC формата                   : Да
Параметр ReFrames формата                : 1 кадр
Параметр GOP формата                     : M=1, N=60
Идентификатор кодека                     : avc1
Идентификатор кодека/Информация          : Advanced Video Coding
Продолжительность                        : 5 м. 31 с.
Битрейт                                  : 2090 Кбит/сек
Максимальный битрейт                     : 5887 Кбит/сек
Ширина                                   : 1280 пикселей
Высота                                   : 720 пикселей
Соотношение сторон                       : 16:9
Режим частоты кадров                     : Постоянный
Частота кадров                           : 29,970 кадров/сек
Цветовое пространство                    : YUV
Субдискретизация насыщенности            : 4:2:0
Битовая глубина                          : 8 бит
Тип развёртки                            : Прогрессивная
Бит/(Пиксели*Кадры)                      : 0.076
Размер потока                            : 82,5 Мбайт (91%)
Дата пометки                             : UTC 2014-12-07 17:07:49

Аудио
Идентификатор                            : 2
Формат                                   : AAC
Формат/Информация                        : Advanced Audio Codec
Профиль формата                          : LC
Идентификатор кодека                     : 40
Продолжительность                        : 5 м. 31 с.
Вид битрейта                             : Переменный
Битрейт                                  : 192 Кбит/сек
Максимальный битрейт                     : 201 Кбит/сек
Каналы                                   : 2 канала
Расположение каналов                     : Front: L R
Частота                                  : 44,1 КГц
Метод сжатия                             : С потерями
Размер потока                            : 7,58 Мбайт (8%)
Заголовок                                : IsoMedia File Produced by Google, 5-11-2011
Дата кодирования                         : UTC 2014-12-07 17:07:48
Дата пометки                             : UTC 2014-12-07 17:07:49

Общее
Полное имя                               : F:\Клипы\Native american\Remember the first people (Native American clips)\18. Wolfsheart - The Call Of The Canyons.mp4
Формат                                   : MPEG-4
Профиль формата                          : Base Media / Version 2
Идентификатор кодека                     : mp42
Размер файла                             : 123 Мбайт
Продолжительность                        : 5 м. 39 с.
Режим общего битрейта                    : Переменный
Общий поток                              : 3041 Кбит/сек
Дата кодирования                         : UTC 2010-08-31 21:43:02
Дата пометки                             : UTC 2010-08-31 21:43:02
gsst                                     : 0
gstd                                     : 339573
gssd                                     : BADC23202MH1338873021397433
gshh                                     : r5.ams03s15.c.youtube.com

Видео
Идентификатор                            : 1
Формат                                   : AVC
Формат/Информация                        : Advanced Video Codec
Профиль формата                          :
Параметр CABAC формата                   : Да
Параметр ReFrames формата                : 1 кадр
Параметр GOP формата                     : M=1, N=30
Идентификатор кодека                     : avc1
Идентификатор кодека/Информация          : Advanced Video Coding
Продолжительность                        : 5 м. 39 с.
Битрейт                                  : 2912 Кбит/сек
Максимальный битрейт                     : 6767 Кбит/сек
Ширина                                   : 1280 пикселей
Высота                                   : 720 пикселей
Соотношение сторон                       : 16:9
Режим частоты кадров                     : Переменный
Частота кадров                           : 29,970 кадров/сек
Минимальная частота кадров               : 29,412 кадров/сек
Максимальная частота кадров              : 30,303 кадров/сек
Цветовое пространство                    : YUV
Субдискретизация насыщенности            : 4:2:0
Битовая глубина                          : 8 бит
Тип развёртки                            : Прогрессивная
Бит/(Пиксели*Кадры)                      : 0.105
Размер потока                            : 118 Мбайт (96%)
Дата кодирования                         : UTC 1970-01-01 00:00:00
Дата пометки                             : UTC 2010-08-31 21:43:13

Аудио
Идентификатор                            : 2
Формат                                   : AAC
Формат/Информация                        : Advanced Audio Codec
Профиль формата                          : LC
Идентификатор кодека                     : 40
Продолжительность                        : 5 м. 39 с.
Вид битрейта                             : Переменный
Битрейт                                  : 122 Кбит/сек
Максимальный битрейт                     : 150 Кбит/сек
Каналы                                   : 2 канала
Расположение каналов                     : Front: L R
Частота                                  : 44,1 КГц
Метод сжатия                             : С потерями
Размер потока                            : 4,95 Мбайт (4%)
Заголовок                                : (C) 2007 Google Inc. v08.13.2007.
Дата кодирования                         : UTC 2010-08-31 21:43:08
Дата пометки                             : UTC 2010-08-31 21:43:13

Общее
Полное имя                               : F:\Клипы\Native american\Remember the first people (Native American clips)\19. Nature - Nahoma.mp4
Формат                                   : MPEG-4
Профиль формата                          : Base Media / Version 2
Идентификатор кодека                     : mp42
Размер файла                             : 76,0 Мбайт
Продолжительность                        : 3 м. 51 с.
Режим общего битрейта                    : Переменный
Общий поток                              : 2758 Кбит/сек
Дата кодирования                         : UTC 2013-12-11 23:10:39
Дата пометки                             : UTC 2013-12-11 23:10:39
gsst                                     : 0
gstd                                     : 231153
gssd                                     : B0AFCDAE3HM1436352466695339
gshh                                     : r10---sn-5go7dn7d.googlevideo.com

Видео
Идентификатор                            : 1
Формат                                   : AVC
Формат/Информация                        : Advanced Video Codec
Профиль формата                          :
Параметр CABAC формата                   : Да
Параметр ReFrames формата                : 1 кадр
Идентификатор кодека                     : avc1
Идентификатор кодека/Информация          : Advanced Video Coding
Продолжительность                        : 3 м. 51 с.
Битрейт                                  : 2563 Кбит/сек
Максимальный битрейт                     : 6009 Кбит/сек
Ширина                                   : 1280 пикселей
Высота                                   : 720 пикселей
Соотношение сторон                       : 16:9
Режим частоты кадров                     : Постоянный
Частота кадров                           : 30,000 кадров/сек
Цветовое пространство                    : YUV
Субдискретизация насыщенности            : 4:2:0
Битовая глубина                          : 8 бит
Тип развёртки                            : Прогрессивная
Бит/(Пиксели*Кадры)                      : 0.093
Размер потока                            : 70,6 Мбайт (93%)
Дата пометки                             : UTC 2013-12-11 23:10:41

Аудио
Идентификатор                            : 2
Формат                                   : AAC
Формат/Информация                        : Advanced Audio Codec
Профиль формата                          : LC
Идентификатор кодека                     : 40
Продолжительность                        : 3 м. 51 с.
Вид битрейта                             : Переменный
Битрейт                                  : 192 Кбит/сек
Максимальный битрейт                     : 201 Кбит/сек
Каналы                                   : 2 канала
Расположение каналов                     : Front: L R
Частота                                  : 44,1 КГц
Метод сжатия                             : С потерями
Размер потока                            : 5,29 Мбайт (7%)
Заголовок                                : IsoMedia File Produced by Google, 5-11-2011
Дата кодирования                         : UTC 2013-12-11 23:10:40
Дата пометки                             : UTC 2013-12-11 23:10:41

Общее
Полное имя                               : F:\Клипы\Native american\Remember the first people (Native American clips)\20. Brule - Indian Summer Showcase 2012 (Full Concert).mp4
Формат                                   : MPEG-4
Профиль формата                          : Base Media / Version 2
Идентификатор кодека                     : mp42
Размер файла                             : 1,33 Гбайт
Продолжительность                        : 1 ч. 6 м.
Режим общего битрейта                    : Переменный
Общий поток                              : 2876 Кбит/сек
Дата кодирования                         : UTC 2014-02-16 23:47:05
Дата пометки                             : UTC 2014-02-16 23:47:05
gsst                                     : 0
gstd                                     : 3975998
gssd                                     : BC37A1005HM1438021536541785
gshh                                     : r2---sn-a5uuxaxjvh-gpmz.googlevideo.com

Видео
Идентификатор                            : 1
Формат                                   : AVC
Формат/Информация                        : Advanced Video Codec
Профиль формата                          :
Параметр CABAC формата                   : Да
Параметр ReFrames формата                : 1 кадр
Идентификатор кодека                     : avc1
Идентификатор кодека/Информация          : Advanced Video Coding
Продолжительность                        : 1 ч. 6 м.
Битрейт                                  : 2681 Кбит/сек
Максимальный битрейт                     : 5761 Кбит/сек
Ширина                                   : 1280 пикселей
Высота                                   : 720 пикселей
Соотношение сторон                       : 16:9
Режим частоты кадров                     : Постоянный
Частота кадров                           : 29,970 кадров/сек
Цветовое пространство                    : YUV
Субдискретизация насыщенности            : 4:2:0
Битовая глубина                          : 8 бит
Тип развёртки                            : Прогрессивная
Бит/(Пиксели*Кадры)                      : 0.097
Размер потока                            : 1,24 Гбайт (93%)
Дата пометки                             : UTC 2014-02-17 00:04:18

Аудио
Идентификатор                            : 2
Формат                                   : AAC
Формат/Информация                        : Advanced Audio Codec
Профиль формата                          : LC
Идентификатор кодека                     : 40
Продолжительность                        : 1 ч. 6 м.
Вид битрейта                             : Переменный
Битрейт                                  : 192 Кбит/сек
Максимальный битрейт                     : 202 Кбит/сек
Каналы                                   : 2 канала
Расположение каналов                     : Front: L R
Частота                                  : 44,1 КГц
Метод сжатия                             : С потерями
Размер потока                            : 91,0 Мбайт (7%)
Заголовок                                : IsoMedia File Produced by Google, 5-11-2011
Дата кодирования                         : UTC 2014-02-16 23:58:08
Дата пометки                             : UTC 2014-02-17 00:04:18

Скриншоты:



Время раздачи: с 6:00 до 22:00 (GMT +2)
 
Не забывайте говорить Спасибо. Не уходите с раздачи!   
Торрент: Зарегистрирован [03 авг 2015, 00:32] Скачать торрент
Скачать торрент
[ Размер 21.2 КБ / Просмотров 8 ]
Статус:
Проверен
 
.torrent скачан: 0 раз
Хэш: bc37db0c07469da000b3e0464030bb70a54b608b
Размер: 3.79 ГБ (4 072 982 701 байт)
Стать Автором раздачи
 
 
Раздал: 0 байт
Скачал: 0 байт
Ратио: Inf.
Сообщения: 188877
Зарегистрирован: 14 июн 2014, 20:46


  • Похожие торренты
    Ответы
    Просмотры
    Последнее сообщение

Вернуться в Музыкальные клипы (транзит)

Ресурс не предоставляет электронные версии произведений, а занимается лишь коллекционированием и каталогизацией ссылок, присылаемых и публикуемых на форуме нашими читателями. Если вы являетесь правообладателем какого-либо представленного материала и не желаете чтобы ссылка на него находилась в нашем каталоге, свяжитесь с нами и мы незамедлительно удалим её. Файлы для обмена на трекере предоставлены пользователями сайта, и администрация не несёт ответственности за их содержание. Просьба не заливать файлы, защищенные авторскими правами, а также файлы нелегального содержания!
cron