Мистер Робот / Mr. Robot (2015) HDTVRip / WEB-DLRip [H.264] (Сезон 1, серии 1-6 из 10) LostFilm [MP4|960x544] (обновляемая)

 
 Статистика раздачи 
Размер: 5.25 ГБ   |  Зарегистрирован: 02 авг 2015, 03:47   |   .torrent скачан: 0 раз
Сидеров: 1  [ 0 байт/сек ]     Личеров: 1  [ 0 байт/сек ]  
  

Мистер Робот / Mr. Robot (2015) HDTVRip / WEB-DLRip [H.264] (Сезон 1, серии 1-6 из 10) LostFilm [MP4|960x544] (обновляемая)

Сообщение Satch » 02 авг 2015, 03:47

Мистер Робот / Mr. Robot (2015) HDTVRip / WEB-DLRip

Производство: США
Жанр: Драма, Криминал

Режиссер: Нильс Арден Оплев
Актеры: Рами Малек, Карли Чаикин, Портия Даблдэй, Мартин Волстром, Кристиан Слэйтер, Майкл Гилл, Бен Раппапорт, Аарон Такахаси, Фрэнки Шоу, Самрат Чакрабарти

Описание:
История молодого программиста Эллиота, страдающего диссоциальным расстройством личности и решившего, что единственный приемлемый для него способ взаимодействия с людьми — это профессия хакера. Таким образом, он быстро оказывается в том самом месте, где пересекаются интересы его работодателя — фирмы, занимающейся кибербезопасностью, — и подпольных организаций, которые пытаются его завербовать с целью обрушения самых могучих американских корпораций.


Дата мировой премьеры: 24 июня 2015

Продолжительность: ~ 00:59:00 х 6
Качество видео: HDTVRip / WEB-DLRip
Перевод: Многоголосый закадровый (LostFilm)

Видео: AVC/H.264, 960х544, ~2345 Kbps
Аудио #1: AAC, 2 ch, 160 Kbps, VBR (русский) многоголосый закадровый, LostFilm
Код:
Код: Выделить всё
General
Complete name                            : F:\Робот (2015) 1 сезон\Mr. Robot S01E01.mp4
Format                                   : MPEG-4
Format profile                           : Base Media
Codec ID                                 : isom
File size                                : 1.21 GiB
Duration                                 : 1h 4mn
Overall bit rate mode                    : Variable
Overall bit rate                         : 2 673 Kbps
Season                                   : 1
Movie name                               : Mr  Robot
Part                                     : 1
Part/Position                            : 1
Track name/Position                      : 1
ContentType                              : Short Film
Encoded date                             : UTC 2015-06-10 02:27:06
Tagged date                              : UTC 2015-06-10 02:28:16
Title/Sort                               : Mr  Robot

Video
ID                                       : 1
Format                                   : AVC
Format/Info                              : Advanced Video Codec
Format profile                           :
Format settings, CABAC                   : Yes
Format settings, ReFrames                : 3 frames
Codec ID                                 : avc1
Codec ID/Info                            : Advanced Video Coding
Duration                                 : 1h 4mn
Bit rate                                 : 2 345 Kbps
Maximum bit rate                         : 5 562 Kbps
Width                                    : 960 pixels
Height                                   : 544 pixels
Display aspect ratio                     : 16:9
Frame rate mode                          : Constant
Frame rate                               : 23.976 fps
Color space                              : YUV
Chroma subsampling                       : 4:2:0
Bit depth                                : 8 bits
Scan type                                : Progressive
Bits/(Pixel*Frame)                       : 0.187
Stream size                              : 1.06 GiB (88%)
Writing library                          : x264 core 116 r2019M 9cc407d
Encoding settings                        : cabac=1 / ref=3 / deblock=1:-1:-1 / analyse=0x1:0x131 / me=hex / subme=7 / psy=1 / psy_rd=1.00:0.15 / mixed_ref=1 / me_range=16 / chroma_me=1 / trellis=1 / 8x8dct=0 / cqm=0 / deadzone=21,11 / fast_pskip=1 / chroma_qp_offset=-3 / threads=12 / sliced_threads=0 / nr=0 / decimate=1 / interlaced=0 / bluray_compat=0 / constrained_intra=0 / bframes=3 / b_pyramid=0 / b_adapt=2 / b_bias=0 / direct=3 / weightb=1 / open_gop=0 / weightp=0 / keyint=230 / keyint_min=23 / scenecut=40 / intra_refresh=0 / rc_lookahead=40 / rc=2pass / mbtree=1 / bitrate=2345 / ratetol=1.0 / qcomp=0.60 / qpmin=10 / qpmax=51 / qpstep=4 / cplxblur=20.0 / qblur=0.5 / vbv_maxrate=5000 / vbv_bufsize=1835 / nal_hrd=none / ip_ratio=1.40 / aq=1:1.00
Language                                 : English
Encoded date                             : UTC 2015-06-10 02:27:06
Tagged date                              : UTC 2015-06-10 02:27:31

Audio #1
ID                                       : 2
Format                                   : AAC
Format/Info                              : Advanced Audio Codec
Format profile                           : LC
Codec ID                                 : 40
Duration                                 : 1h 4mn
Bit rate mode                            : Variable
Bit rate                                 : 160 Kbps
Maximum bit rate                         : 220 Kbps
Channel(s)                               : 2 channels
Channel positions                        : Front: L R
Sampling rate                            : 48.0 KHz
Compression mode                         : Lossy
Stream size                              : 74.0 MiB (6%)
Language                                 : Russian
Encoded date                             : UTC 2015-06-10 02:27:26
Tagged date                              : UTC 2015-06-10 02:27:31

Audio #2
ID                                       : 3
Format                                   : AAC
Format/Info                              : Advanced Audio Codec
Format profile                           : LC
Codec ID                                 : 40
Duration                                 : 1h 4mn
Bit rate mode                            : Variable
Bit rate                                 : 159 Kbps
Maximum bit rate                         : 208 Kbps
Channel(s)                               : 2 channels
Channel positions                        : Front: L R
Sampling rate                            : 48.0 KHz
Compression mode                         : Lossy
Stream size                              : 74.0 MiB (6%)
Language                                 : English
Encoded date                             : UTC 2015-06-10 02:27:28
Tagged date                              : UTC 2015-06-10 02:27:31
eps1.0_hellofriend.mov
eps1.1_ones-and-zer0es.mpeg
eps.1.2_d3bug.mkv
eps.1.3_da3m0ns.mp4
eps.1.4_3xpl0its.wmv
eps.1.5_br4ve-trave1er.asf 29 Jul. 2015
eps.1.6_v1ew-s0urce.flv 05 Aug. 2015
eps.1.7_wh1ter0se.m4v 12 Aug. 2015
eps.1.8_m1rr0r1ng.qt 19 Aug. 2015
eps1.9_zer0-day.avi 26 Aug. 2015
Внимание! Раздача ведётся путём добавления новых серий; при каждом добавлении создаётся новый торрент.
Чтобы начать докачку новой серии, пользователям необходимо сделать следующее:
1. Остановить скачивание;
2. Удалить старый торрент у себя из клиента (старые серии удалять не надо);
3. Скачать новый торрент и запустить его у себя в клиенте вместо старого, при этом указать клиенту путь в старую папку куда и должно происходить скачивание новых серий. Ваш клиент при этом должен произвести хеширование (проверку) старой папки и будет докачивать только те серии, которых у вас ещё нет. Старые серии при этом не удаляются, а продолжают раздаваться! Eсли вы уже удалили старые серии, то предотвратить повторную закачку старых серий можно, отжав галочку в соответствующих местах при запуске нового торрента.

Скриншоты:




Время раздачи: 24/7 до трёх скачавших
 
Не забывайте говорить Спасибо. Не уходите с раздачи!   
Торрент: Зарегистрирован [02 авг 2015, 03:47] Для скачивания .torrent
необходима регистрация
Или скачать с помощью
MediaGet
Статус:
Проверен
 
.torrent скачан: 0 раз
Хэш: 7d00ff81a0e9cfe3c66168fc841d0564cbeeab08
Размер: 5.25 ГБ (5 640 240 230 байт)
Стать Автором раздачи
 
Аватара пользователя
 
Раздал: 2.45 ГБ
Скачал: 15.94 МБ
Ратио: 157.696
Сообщения: 337733
Зарегистрирован: 16 янв 2012, 17:03


  • Похожие торренты
    Ответы
    Просмотры
    Последнее сообщение

Вернуться в Видео для мобильных устройств

Ресурс не предоставляет электронные версии произведений, а занимается лишь коллекционированием и каталогизацией ссылок, присылаемых и публикуемых на форуме нашими читателями. Если вы являетесь правообладателем какого-либо представленного материала и не желаете чтобы ссылка на него находилась в нашем каталоге, свяжитесь с нами и мы незамедлительно удалим её. Файлы для обмена на трекере предоставлены пользователями сайта, и администрация не несёт ответственности за их содержание. Просьба не заливать файлы, защищенные авторскими правами, а также файлы нелегального содержания!
cron