(Hardcore) Jasta - Jasta - 2011, FLAC (tracks+.cue), lossless

 
 Статистика раздачи 
Размер: 288.02 МБ   |  Зарегистрирован: 31 июл 2015, 02:17   |   .torrent скачан: 1 раз
Сидеров: 1  [ 0 байт/сек ]     Личеров: 0  [ 0 байт/сек ]  
  

(Hardcore) Jasta - Jasta - 2011, FLAC (tracks+.cue), lossless

Сообщение ExaByte » 31 июл 2015, 02:17

Jasta / Jasta

Жанр: Hardcore
Год издания диска: 2011
Страна: USA
Аудиокодек: FLAC (*.flac)
Тип рипа: tracks+.cue
Битрейт аудио: lossless
Продолжительность: 00:37:30
Источник (релизер): waffles (Antichrist90)
Наличие сканов в содержимом раздачи: нет
Треклист:
01. Walk That Path Alone (2:17)
02. Mourn The Illusion (3:15)
03. Screams From The Sanctuary (3:05)
04. Nothing They Say (4:01)
05. Anthem Of The Freedom Fighter (3:41)
06. Something You Should Know (2:53)
07. Set You Adrift (3:23)
08. Enslaved, Dead Or Depraved (3:05)
09. With A Resounding Voice (3:05)
10. The Fearless Must Endure (3:14)
11. Heart Of A Warrior (1:58)
12. Death Bestowed (3:33)
Код: Выделить всё
Exact Audio Copy V0.99 prebeta 5 from 4. May 2009

EAC extraction logfile from 22. July 2011, 18:01

Jasta / Jasta

Used drive  : HL-DT-STDVD-RAM GH22NS30   Adapter: 2  ID: 1

Read mode               : Secure
Utilize accurate stream : Yes
Defeat audio cache      : Yes
Make use of C2 pointers : No

Read offset correction                      : 102
Overread into Lead-In and Lead-Out          : No
Fill up missing offset samples with silence : Yes
Delete leading and trailing silent blocks   : No
Null samples used in CRC calculations       : Yes
Used interface                              : Native Win32 interface for Win NT & 2000
Gap handling                                : Appended to previous track

Used output format              : User Defined Encoder
Selected bitrate                : 320 kBit/s
Quality                         : High
Add ID3 tag                     : No
Command line compressor         : C:\Programme\EAC\Exact Audio Copy\Flac\flac.exe
Additional command line options : -V -8 -T "artist=%a" -T "title=%t" -T "album=%g" -T "date=%y" -T "tracknumber=%n" -T "genre=%m" %s

TOC of the extracted CD

     Track |   Start  |  Length  | Start sector | End sector
    ---------------------------------------------------------
        1  |  0:00.00 |  2:16.65 |         0    |    10264
        2  |  2:16.65 |  3:14.39 |     10265    |    24853
        3  |  5:31.29 |  3:04.53 |     24854    |    38706
        4  |  8:36.07 |  4:01.26 |     38707    |    56807
        5  | 12:37.33 |  3:41.34 |     56808    |    73416
        6  | 16:18.67 |  2:53.08 |     73417    |    86399
        7  | 19:12.00 |  3:23.15 |     86400    |   101639
        8  | 22:35.15 |  3:04.71 |    101640    |   115510
        9  | 25:40.11 |  3:05.04 |    115511    |   129389
       10  | 28:45.15 |  3:13.60 |    129390    |   143924
       11  | 31:59.00 |  1:57.72 |    143925    |   152771
       12  | 33:56.72 |  3:32.54 |    152772    |   168725

Track  1

     Filename C:\Programme\Bit Torrent\incoming\NEUE\Jasta -  - Jasta\01 - Walk That Path Alone.wav

     Pre-gap length  0:00:02.00

     Peak level 100.0 %
     Track quality 100.0 %
     Test CRC 7356845A
     Copy CRC 7356845A
     Track not present in AccurateRip database
     Copy OK

Track  2

     Filename C:\Programme\Bit Torrent\incoming\NEUE\Jasta -  - Jasta\02 - Mourn The Illusion.wav

     Peak level 100.0 %
     Track quality 100.0 %
     Test CRC 43C14C84
     Copy CRC 43C14C84
     Track not present in AccurateRip database
     Copy OK

Track  3

     Filename C:\Programme\Bit Torrent\incoming\NEUE\Jasta -  - Jasta\03 - Screams From The Sanctuary.wav

     Peak level 100.0 %
     Track quality 100.0 %
     Test CRC 228095AE
     Copy CRC 228095AE
     Track not present in AccurateRip database
     Copy OK

Track  4

     Filename C:\Programme\Bit Torrent\incoming\NEUE\Jasta -  - Jasta\04 - Nothing They Say.wav

     Peak level 100.0 %
     Track quality 100.0 %
     Test CRC 7282333C
     Copy CRC 7282333C
     Track not present in AccurateRip database
     Copy OK

Track  5

     Filename C:\Programme\Bit Torrent\incoming\NEUE\Jasta -  - Jasta\05 - Anthem Of The Freedom Fighter.wav

     Peak level 100.0 %
     Track quality 100.0 %
     Test CRC C7841865
     Copy CRC C7841865
     Track not present in AccurateRip database
     Copy OK

Track  6

     Filename C:\Programme\Bit Torrent\incoming\NEUE\Jasta -  - Jasta\06 - Something You Should Know.wav

     Peak level 100.0 %
     Track quality 100.0 %
     Test CRC C6CAAA9D
     Copy CRC C6CAAA9D
     Track not present in AccurateRip database
     Copy OK

Track  7

     Filename C:\Programme\Bit Torrent\incoming\NEUE\Jasta -  - Jasta\07 - Set You Adrift.wav

     Peak level 100.0 %
     Track quality 99.9 %
     Test CRC 420C1C96
     Copy CRC 420C1C96
     Track not present in AccurateRip database
     Copy OK

Track  8

     Filename C:\Programme\Bit Torrent\incoming\NEUE\Jasta -  - Jasta\08 - Enslaved, Dead Or Depraved.wav

     Peak level 100.0 %
     Track quality 99.9 %
     Test CRC 032ECC25
     Copy CRC 032ECC25
     Track not present in AccurateRip database
     Copy OK

Track  9

     Filename C:\Programme\Bit Torrent\incoming\NEUE\Jasta -  - Jasta\09 - With A Resounding Voice.wav

     Peak level 100.0 %
     Track quality 100.0 %
     Test CRC 6119A83A
     Copy CRC 6119A83A
     Track not present in AccurateRip database
     Copy OK

Track 10

     Filename C:\Programme\Bit Torrent\incoming\NEUE\Jasta -  - Jasta\10 - The Fearless Must Endure.wav

     Peak level 100.0 %
     Track quality 100.0 %
     Test CRC 8B6FB28E
     Copy CRC 8B6FB28E
     Track not present in AccurateRip database
     Copy OK

Track 11

     Filename C:\Programme\Bit Torrent\incoming\NEUE\Jasta -  - Jasta\11 - Heart Of A Warrior.wav

     Peak level 100.0 %
     Track quality 100.0 %
     Test CRC C92FC409
     Copy CRC C92FC409
     Track not present in AccurateRip database
     Copy OK

Track 12

     Filename C:\Programme\Bit Torrent\incoming\NEUE\Jasta -  - Jasta\12 - Death Bestowed.wav

     Peak level 100.0 %
     Track quality 100.0 %
     Test CRC 8CEF7E68
     Copy CRC 8CEF7E68
     Track not present in AccurateRip database
     Copy OK

None of the tracks are present in the AccurateRip database

No errors occurred

End of status report
Код: Выделить всё
REM DATE 2011
REM DISCID 9D08C90C
REM COMMENT "ExactAudioCopy v0.99pb5"
PERFORMER "Jasta"
TITLE "Jasta"
FILE "01 - Walk That Path Alone.flac" WAVE
  TRACK 01 AUDIO
    INDEX 01 00:00:00
FILE "02 - Mourn The Illusion.flac" WAVE
  TRACK 02 AUDIO
    INDEX 01 00:00:00
FILE "03 - Screams From The Sanctuary.flac" WAVE
  TRACK 03 AUDIO
    INDEX 01 00:00:00
FILE "04 - Nothing They Say.flac" WAVE
  TRACK 04 AUDIO
    INDEX 01 00:00:00
FILE "05 - Anthem Of The Freedom Fighter.flac" WAVE
  TRACK 05 AUDIO
    INDEX 01 00:00:00
FILE "06 - Something You Should Know.flac" WAVE
  TRACK 06 AUDIO
    INDEX 01 00:00:00
FILE "07 - Set You Adrift.flac" WAVE
  TRACK 07 AUDIO
    INDEX 01 00:00:00
FILE "08 - Enslaved, Dead Or Depraved.flac" WAVE
  TRACK 08 AUDIO
    INDEX 01 00:00:00
FILE "09 - With A Resounding Voice.flac" WAVE
  TRACK 09 AUDIO
    INDEX 01 00:00:00
FILE "10 - The Fearless Must Endure.flac" WAVE
  TRACK 10 AUDIO
    INDEX 01 00:00:00
FILE "11 - Heart Of A Warrior.flac" WAVE
  TRACK 11 AUDIO
    INDEX 01 00:00:00
FILE "12 - Death Bestowed.flac" WAVE
  TRACK 12 AUDIO
    INDEX 01 00:00:00
Код: Выделить всё
-----------------------

DON'T MODIFY THIS FILE

-----------------------

PERFORMER: auCDtect Task Manager, ver. 1.5.1RC4 build 1.5.1.5
Copyright (c) 2008-2010 y-soft. All rights reserved
[url=http://y-soft.org]http://y-soft.org[/url]

ANALYZER: auCDtect: CD records authenticity detector, version 0.8.2
Copyright (c) 2004 Oleg Berngardt. All rights reserved.
Copyright (c) 2004 Alexander Djourik. All rights reserved.

FILE: 12 - Death Bestowed.flac
  Size: 28909579 Hash: 90C62C1CC2A16EA608A55509382835AA Accuracy: -m0
  Conclusion: CDDA 99%
  Signature: 1785B18C9A7479A256587F18101E162537E263B2
FILE: 11 - Heart Of A Warrior.flac
  Size: 15743487 Hash: D3303CD179F6C39A3235B90701339E05 Accuracy: -m0
  Conclusion: CDDA 100%
  Signature: BB48D43DE2CB358AF31E9FC0F3BC8331355799F2
FILE: 10 - The Fearless Must Endure.flac
  Size: 26828355 Hash: 42BD4095AA8452BBF1820D28071AF9CA Accuracy: -m0
  Conclusion: CDDA 99%
  Signature: 72BF5EF065B48467376381334FFED884847D6D7B
FILE: 09 - With A Resounding Voice.flac
  Size: 23738841 Hash: B932353AF1A02B1C6D12FAD21CFD6B3B Accuracy: -m0
  Conclusion: CDDA 100%
  Signature: C710380315D422013D3989AF4D0D56F7E81D0AB5
FILE: 08 - Enslaved, Dead Or Depraved.flac
  Size: 23782461 Hash: 7EABED8EB5E2AE4E1F0749A64D197261 Accuracy: -m0
  Conclusion: CDDA 100%
  Signature: 7A786BA7656965D245F2D074C6ECECCDD9F98E8A
FILE: 07 - Set You Adrift.flac
  Size: 27253380 Hash: 3ED67AE7A7BAD85F3C1BCF587AA3BC77 Accuracy: -m0
  Conclusion: CDDA 100%
  Signature: ED81B7076372B4F05C0DAD4B3402BB8BC2C5903C
FILE: 06 - Something You Should Know.flac
  Size: 24069849 Hash: 69398DA522A933208EAFFA755EA1AFA7 Accuracy: -m0
  Conclusion: CDDA 100%
  Signature: 663EDBAC3835DC3F0DDC2D533F68E1501516111B
FILE: 05 - Anthem Of The Freedom Fighter.flac
  Size: 29201920 Hash: 54BE6B8FEB820D534448836D49A8A28B Accuracy: -m0
  Conclusion: CDDA 100%
  Signature: 4D1933F1DF696F8D53E36CF8B63354ED6E9A1BE2
FILE: 04 - Nothing They Say.flac
  Size: 32573332 Hash: 3889DD4E4EE8AB50D7CAE5DAD27349FB Accuracy: -m0
  Conclusion: CDDA 100%
  Signature: E8BC4ED54DA9AF30D86FE122D4373589911FE9D6
FILE: 03 - Screams From The Sanctuary.flac
  Size: 25531938 Hash: B8596D212F0F847D9E0DFEDAF8527D3A Accuracy: -m0
  Conclusion: CDDA 100%
  Signature: 3CB794581DEDFC8C1B61CA4ECC73B34D7D7D1C1A
FILE: 02 - Mourn The Illusion.flac
  Size: 26330512 Hash: 1D59B7643FDB2BBDF48881F0DDC418E6 Accuracy: -m0
  Conclusion: CDDA 100%
  Signature: EC4D308B034A40FF2425A9494FABE295F9BCEBBF
FILE: 01 - Walk That Path Alone.flac
  Size: 17950920 Hash: B9037BEBAE432A626ABF209C5F139EFF Accuracy: -m0
  Conclusion: CDDA 100%
  Signature: C97C4D011FC0DC6A237FF234784DE1D34F43519E
Доп. информация: Прослушать на amazon
 
Не забывайте говорить Спасибо. Не уходите с раздачи!   
Торрент: Зарегистрирован [31 июл 2015, 02:17] Скачать торрент
Скачать торрент
[ Размер 12.54 КБ / Просмотров 12 ]
Статус:
Проверен
 
.torrent скачан: 1 раз
Хэш: a7aa536832654bb3e4ffaad0a42efb5f3123ce06
Размер: 288.02 МБ (302 013 894 байт)
Стать Автором раздачи
 
 
Раздал: 2.54 ГБ
Скачал: 0 байт
Ратио: Seed.
Сообщения: 236702
Зарегистрирован: 05 июл 2013, 10:11


Re: (Hardcore) Jasta - Jasta - 2011, FLAC (tracks+.cue), lossless

Сообщение login » 30 янв 2019, 13:41

Встаньте кто-нибудь на раздачу, пожалуйста.
 
Раздал: 765.27 ГБ
Скачал: 334.08 ГБ
Ратио: 2.291
Сообщения: 3
Зарегистрирован: 09 авг 2016, 10:33


  • Похожие торренты
    Ответы
    Просмотры
    Последнее сообщение

Вернуться в Hardcore (lossless)

Ресурс не предоставляет электронные версии произведений, а занимается лишь коллекционированием и каталогизацией ссылок, присылаемых и публикуемых на форуме нашими читателями. Если вы являетесь правообладателем какого-либо представленного материала и не желаете чтобы ссылка на него находилась в нашем каталоге, свяжитесь с нами и мы незамедлительно удалим её. Файлы для обмена на трекере предоставлены пользователями сайта, и администрация не несёт ответственности за их содержание. Просьба не заливать файлы, защищенные авторскими правами, а также файлы нелегального содержания!