[MP4 480x240] Мир Юрского периода / Jurassic World (2015) HDTVRip

 
 Статистика раздачи 
Размер: 522.01 МБ   |  Зарегистрирован: 30 июл 2015, 13:42   |   .torrent скачан: 0 раз
Сидеров: 1  [ 0 байт/сек ]     Личеров: 1  [ 0 байт/сек ]  
  

[MP4 480x240] Мир Юрского периода / Jurassic World (2015) HDTVRip

Сообщение Seepas » 30 июл 2015, 13:42

[MP4 480x240] Мир Юрского периода / Jurassic World (2015) HDTVRip

Платформа или формат: [MP4 480x240]
Производство: США, Китай
Жанр: Фантастика, Приключения, Боевик

Режиссер: Колин Треворроу
Актеры: Крис Пратт, Брайс Даллас Ховард, Ник Дж. Робинсон, Тай Симпкинс, Винсент Д’Онофрио, Ирфан Кхан, Омар Си, Б.Д. Вонг, Джейк Джонсон, Джуди Грир

Описание:
Тысячи людей спешат увидеть Мир Юрского периода, но безопасное на первый взгляд развлечение может обернуться угрозой для их жизней…



Продолжительность: 02:04
Качество видео: HDTVRip
Перевод: Дублированный

Видео: AVC/H.264, 480x240, ~450 Kbps
Аудио: AAC, 2 ch, 128 Kbps
Код:
Код: Выделить всё
Video
ID                          : 1
Format                      : AVC
Format/Info                 : Advanced Video Codec
Format profile              :
Format settings, CABAC      : Yes
Format settings, ReFrames   : 4 frames
Codec ID                    : avc1
Codec ID/Info               : Advanced Video Coding
Duration                    : 2h 4mn
Bit rate                    : 450 Kbps
Width                       : 480 pixels
Height                      : 240 pixels
Display aspect ratio        : 2.000
Frame rate mode             : Variable
Frame rate                  : 29.970 fps
Minimum frame rate          : 29.412 fps
Maximum frame rate          : 30.303 fps
Color space                 : YUV
Chroma subsampling          : 4:2:0
Bit depth                   : 8 bits
Scan type                   : Progressive
Bits/(Pixel*Frame)          : 0.130
Stream size                 : 399 MiB (76%)
Writing library             : x264 core 142 r2479 dd79a61
Encoding settings           : cabac=1 / ref=2 / deblock=1:0:0 / analyse=0x1:0x111 / me=hex / subme=6 / psy=1 / psy_rd=1.00:0.00 / mixed_ref=0 / me_range=16 / chroma_me=1 / trellis=0 / 8x8dct=0 / cqm=0 / deadzone=21,11 / fast_pskip=1 / chroma_qp_offset=-2 / threads=6 / lookahead_threads=1 / sliced_threads=0 / nr=0 / decimate=1 / interlaced=0 / bluray_compat=0 / constrained_intra=0 / bframes=2 / b_pyramid=2 / b_adapt=1 / b_bias=0 / direct=1 / weightb=0 / open_gop=0 / weightp=2 / keyint=300 / keyint_min=30 / scenecut=40 / intra_refresh=0 / rc_lookahead=40 / rc=2pass / mbtree=1 / bitrate=450 / ratetol=1.0 / qcomp=0.60 / qpmin=0 / qpmax=69 / qpstep=4 / cplxblur=20.0 / qblur=0.5 / ip_ratio=1.40 / aq=1:1.00
Color range                 : Limited
Color primaries             : BT.709
Transfer characteristics    : BT.709
Matrix coefficients         : BT.709

Audio
ID                          : 2
Format                      : AAC
Format/Info                 : Advanced Audio Codec
Format profile              : LC
Codec ID                    : 40
Duration                    : 2h 4mn
Bit rate mode               : Variable
Bit rate                    : 128 Kbps
Channel(s)                  : 2 channels
Channel positions           : Front: L R
Sampling rate               : 44.1 KHz
Compression mode            : Lossy
Stream size                 : 114 MiB (22%)
Title                       : Stereo / Stereo
Присутствуют вшитые неотключаемые китайские субтитры.

Скриншоты:



Время раздачи: Пн-Пт с 12:00 до 22:00 до появления первых скачавших
 
Не забывайте говорить Спасибо. Не уходите с раздачи!   
Торрент: Зарегистрирован [30 июл 2015, 13:42] Для скачивания .torrent
необходима регистрация
Или скачать с помощью
MediaGet
Статус:
Проверен
 
.torrent скачан: 0 раз
Хэш: e6c8f12fa0599249e429c55fea4e5d573c98c9b6
Размер: 522.01 МБ (547 366 394 байт)
Стать Автором раздачи
 
 
Раздал: 0 байт
Скачал: 0 байт
Ратио: Inf.
Сообщения: 188877
Зарегистрирован: 14 июн 2014, 20:46


  • Похожие торренты
    Ответы
    Просмотры
    Последнее сообщение

Вернуться в Видео для мобильных устройств

Ресурс не предоставляет электронные версии произведений, а занимается лишь коллекционированием и каталогизацией ссылок, присылаемых и публикуемых на форуме нашими читателями. Если вы являетесь правообладателем какого-либо представленного материала и не желаете чтобы ссылка на него находилась в нашем каталоге, свяжитесь с нами и мы незамедлительно удалим её. Файлы для обмена на трекере предоставлены пользователями сайта, и администрация не несёт ответственности за их содержание. Просьба не заливать файлы, защищенные авторскими правами, а также файлы нелегального содержания!
cron