Гостья из будущего [01-05 из 05] (1984) DVDRip-AVC от New-Team

 
 Статистика раздачи 
Размер: 5 ГБ   |  Зарегистрирован: 29 июл 2015, 12:05   |   .torrent скачан: 724 раз
Сидеров: 79  [ 0 байт/сек ]     Личеров: 8  [ 0 байт/сек ]  
  

Гостья из будущего [01-05 из 05] (1984) DVDRip-AVC от New-Team

Сообщение ExaByte » 29 июл 2015, 12:05




Страна: СССР / Студия Горького, Гостелерадио

Жанр: фантастика, триллер, драма, мелодрама, приключения, семейный
Год выпуска: 1984
Продолжительность: 01:03:30 / серия

Перевод: Не требуется
Cубтитры: русские от RUSCICO, русские от Твистера, английские
Оригинальная аудиодорожка: русский

Режиссер: Павел Арсенов

В ролях: Наталья Гусева, Алексей Фомкин, Илья Наумов, Вячеслав Невинный, Михаил Кононов, Марьяна (Марианна) Ионесян, Елена Метелкина, Евгений Герасимов, Владимир Носик, Юрий Григорьев, Игорь Ясулович, Георгий Бурков, Валентина Талызина, Мария Стерникова, Людмила Аринина, Татьяна Божок, Екатерина Васильева, Антон Суховерко, Семён Бузган, Алексей Муравьёв, Екатерина Авербах, Елена Коляскина, Мария Баукина, Наталья Шанаева, Вячеслав Баранов, Наталья Варлей, Андрей Градов, Елена Цыплакова, Борис Щербаков, Рубен Симонов

Роли дублировали: Татьяна Дасковская, Михаил Кокшенов

Описание: 13 апреля 1984 года, в пятницу, ученик 6-го «Б» класса 20-й московской школы Коля Герасимов, отправившись после уроков в магазин за кефиром, встречает на оживлённой улице друга и одноклассника Фиму Королёва, который, в свою очередь, увлекает его слежкой за таинственной незнакомкой. Выслеживая её, ребята забираются в старый заброшенный двухэтажный дом, но незнакомки там не оказывается. В подвале, в потайной комнате, вход в которую замаскирован под обычный шкаф и закрыт подвижной кирпичной стеной, Коля обнаруживает машину времени. Борьба с космическими пиратами, захватывающее путешествие во времени, знакомство с роботом Вертером, говорящим козлом и девочкой из будущего Алисой Селезневой - вот к чему привел Колю обычный поход за кефиром. Фильм поставлен по мотивам фантастического романа Кира Булычева «Сто лет тому вперед».




Качество: DVDRip-AVC / 2 х DVD9 R5 - полная реставрация изображения и звука от RUSCICO.

Формат: MKV

Видео: 720x544@768x576 (4:3), 25.000 fps, MPEG-4 AVC ~ 1809 kbps avg, 0.174 bit/pixel
Аудио: 48 kHz, Dolby AC3, 6 ch, 448 kbps
Формат субтитров: SoftSub (srt)

О релизе: Я бы скорее всего не взялся за эту работу, если бы на дисках не было русских субтитров, я даже включил в раздачу двое русских субтитров, от RUSCICO и от Твистера . Наши издатели русских фильмов практически никогда не думают о глухих людях, поэтому те и смотрят в основном не наши фильмы. В данном случае большой респект издателям!!!

Раздача от:

General
Format : Matroska
Format version : Version 4 / Version 2
File size : 1 023 MiB
Duration : 1h 3mn
Overall bit rate : 2 259 Kbps
Encoded date : UTC 2015-07-28 15:59:19
Writing application : mkvmerge v8.2.0 ('World of Adventure') 64bit
Writing library : libebml v1.3.1 + libmatroska v1.4.2
DURATION : 01:03:15.366000000
NUMBER_OF_FRAMES : 409
NUMBER_OF_BYTES : 12584
_STATISTICS_WRITING_APP : mkvmerge v8.2.0 ('World of Adventure') 64bit
_STATISTICS_WRITING_DATE_UTC : 2015-07-28 15:59:19
_STATISTICS_TAGS : BPS DURATION NUMBER_OF_FRAMES NUMBER_OF_BYTES

Video
ID : 1
Format : AVC
Format/Info : Advanced Video Codec
Format profile : High@L4.1
Format settings, CABAC : Yes
Format settings, ReFrames : 8 frames
Codec ID : V_MPEG4/ISO/AVC
Duration : 1h 3mn
Bit rate : 1 809 Kbps
Width : 720 pixels
Height : 576 pixels
Display aspect ratio : 4:3
Frame rate : 25.000 fps
Standard : PAL
Color space : YUV
Chroma subsampling : 4:2:0
Bit depth : 8 bits
Scan type : Progressive
Bits/(Pixel*Frame) : 0.174
Stream size : 800 MiB (78%)
Writing library : x264 core 130 r2273 b3065e6
Encoding settings : cabac=1 / ref=8 / deblock=1:-2:-1 / analyse=0x3:0x113 / me=umh / subme=10 / psy=1 / psy_rd=1.00:0.05 / mixed_ref=1 / me_range=32 / chroma_me=1 / trellis=2 / 8x8dct=1 / cqm=0 / deadzone=21,11 / fast_pskip=0 / chroma_qp_offset=-3 / threads=9 / lookahead_threads=1 / sliced_threads=0 / nr=0 / decimate=0 / interlaced=0 / bluray_compat=0 / constrained_intra=0 / bframes=8 / b_pyramid=2 / b_adapt=2 / b_bias=0 / direct=3 / weightb=1 / open_gop=0 / weightp=2 / keyint=250 / keyint_min=25 / scenecut=40 / intra_refresh=0 / rc=2pass / mbtree=0 / bitrate=1809 / ratetol=1.0 / qcomp=0.60 / qpmin=0 / qpmax=69 / qpstep=4 / cplxblur=20.0 / qblur=0.5 / ip_ratio=1.40 / pb_ratio=1.30 / aq=1:1.00
Language : Russian
Default : Yes
Forced : No

Audio
ID : 2
Format : AC-3
Format/Info : Audio Coding 3
Mode extension : CM (complete main)
Format settings, Endianness : Big
Codec ID : A_AC3
Duration : 1h 3mn
Bit rate mode : Constant
Bit rate : 448 Kbps
Channel(s) : 6 channels
Channel positions : Front: L C R, Side: L R, LFE
Sampling rate : 48.0 KHz
Bit depth : 16 bits
Compression mode : Lossy
Stream size : 203 MiB (20%)
Language : Russian
Default : Yes
Forced : No

Text #1
ID : 3
Format : UTF-8
Codec ID : S_TEXT/UTF8
Codec ID/Info : UTF-8 Plain Text
Title : RUSCICO
Language : Russian
Default : No
Forced : No

Text #2
ID : 4
Format : UTF-8
Codec ID : S_TEXT/UTF8
Codec ID/Info : UTF-8 Plain Text
Title : Twister
Language : Russian
Default : No
Forced : No

Text #3
ID : 5
Format : UTF-8
Codec ID : S_TEXT/UTF8
Codec ID/Info : UTF-8 Plain Text
Language : English
Default : No
Forced : No



http://rutor.org/torrent/444947/gostja-iz-buduwego-1984-dvdrip-avc-ot-exkinoray

Видео: http://screenshotcomparison.com/comparison/136771 это сравнение первых серий релизов. Никакого отличия нет, надо думать, прежде чем выставлять битрейт видео 2750 Кбит/с при таком качестве исходника. В итоге пользователи качают лишних 2.09 ГБ, да ещё и без субтитров!
 
Не забывайте говорить Спасибо. Не уходите с раздачи!   
Торрент: Зарегистрирован [29 июл 2015, 12:05] Для скачивания .torrent
необходима регистрация
Или скачать с помощью
MediaGet
Статус:
Проверен
 
.torrent скачан: 724 раз
Хэш: eb7dc8ce200876e5061542c3e94e388655a5e09c
Размер: 5 ГБ (5 372 362 033 байт)
Стать Автором раздачи
 
 
Раздал: 2.54 ГБ
Скачал: 0 байт
Ратио: Seed.
Сообщения: 236702
Зарегистрирован: 05 июл 2013, 10:11


  • Похожие торренты
    Ответы
    Просмотры
    Последнее сообщение

Вернуться в Сериалы

Ресурс не предоставляет электронные версии произведений, а занимается лишь коллекционированием и каталогизацией ссылок, присылаемых и публикуемых на форуме нашими читателями. Если вы являетесь правообладателем какого-либо представленного материала и не желаете чтобы ссылка на него находилась в нашем каталоге, свяжитесь с нами и мы незамедлительно удалим её. Файлы для обмена на трекере предоставлены пользователями сайта, и администрация не несёт ответственности за их содержание. Просьба не заливать файлы, защищенные авторскими правами, а также файлы нелегального содержания!
cron