Гостья из будущего [01-05 из 05] (1984) DVDRip от New-Team

 
 Статистика раздачи 
Размер: 5 ГБ   |  Зарегистрирован: 29 июл 2015, 12:04   |   .torrent скачан: 736 раз
Сидеров: 38  [ 0 байт/сек ]     Личеров: 3  [ 0 байт/сек ]  
  

Гостья из будущего [01-05 из 05] (1984) DVDRip от New-Team

Сообщение ExaByte » 29 июл 2015, 12:04


Страна: СССР / Студия Горького, Гостелерадио

Жанр: фантастика, триллер, драма, мелодрама, приключения, семейный
Год выпуска: 1984
Продолжительность: 01:03:30 / серия

Перевод: Не требуется
Cубтитры: русские от RUSCICO, русские от Твиттера, английские
Оригинальная аудиодорожка: русский

Режиссер: Павел Арсенов

В ролях: Наталья Гусева, Алексей Фомкин, Илья Наумов, Вячеслав Невинный, Михаил Кононов, Марьяна (Марианна) Ионесян, Елена Метелкина, Евгений Герасимов, Владимир Носик, Юрий Григорьев, Игорь Ясулович, Георгий Бурков, Валентина Талызина, Мария Стерникова, Людмила Аринина, Татьяна Божок, Екатерина Васильева, Антон Суховерко, Семён Бузган, Алексей Муравьёв, Екатерина Авербах, Елена Коляскина, Мария Баукина, Наталья Шанаева, Вячеслав Баранов, Наталья Варлей, Андрей Градов, Елена Цыплакова, Борис Щербаков, Рубен Симонов

Роли дублировали: Татьяна Дасковская, Михаил Кокшенов

Описание: 13 апреля 1984 года, в пятницу, ученик 6-го «Б» класса 20-й московской школы Коля Герасимов, отправившись после уроков в магазин за кефиром, встречает на оживлённой улице друга и одноклассника Фиму Королёва, который, в свою очередь, увлекает его слежкой за таинственной незнакомкой. Выслеживая её, ребята забираются в старый заброшенный двухэтажный дом, но незнакомки там не оказывается. В подвале, в потайной комнате, вход в которую замаскирован под обычный шкаф и закрыт подвижной кирпичной стеной, Коля обнаруживает машину времени. Борьба с космическими пиратами, захватывающее путешествие во времени, знакомство с роботом Вертером, говорящим козлом и девочкой из будущего Алисой Селезневой - вот к чему привел Колю обычный поход за кефиром. Фильм поставлен по мотивам фантастического романа Кира Булычева «Сто лет тому вперед».




Качество: DVDRip / 2 х DVD9 R5 - полная реставрация изображения и звука от RUSCICO.

Формат: AVI

Видео: 720x544 (4:3), 25.000 fps, XviD ~ 1800 kbps avg, 0.184 bit/pixel
Аудио: 48 kHz, Dolby AC3, 6 ch, 448 kbps
Формат субтитров: SoftSub (srt)

О релизе: Я бы скорее всего не взялся за эту работу, если бы на дисках не было русских субтитров, я даже включил в раздачу двое русских субтитров, от RUSCICO и от Твиттера . Наши издатели фильмов практически никогда не думают о глухих людях, поэтому те и смотрят в основном не наши фильмы. В данном случае большой респект издателю!!!

Раздача от:

General
Format : AVI
Format/Info : Audio Video Interleave
File size : 1 022 MiB
Duration : 1h 3mn
Overall bit rate : 2 256 Kbps
Writing application : VirtualDubMod 1.5.10.3 | www.virtualdub-fr.org || (build 2550/release)
Writing library : VirtualDubMod build 2550/release

Video
ID : 0
Format : MPEG-4 Visual
Format profile : Advanced Simple@L5
Format settings, BVOP : 1
Format settings, QPel : No
Format settings, GMC : No warppoints
Format settings, Matrix : Custom
Codec ID : XVID
Codec ID/Hint : XviD
Duration : 1h 3mn
Bit rate : 1 798 Kbps
Width : 720 pixels
Height : 544 pixels
Display aspect ratio : 4:3
Frame rate : 25.000 fps
Color space : YUV
Chroma subsampling : 4:2:0
Bit depth : 8 bits
Scan type : Progressive
Compression mode : Lossy
Bits/(Pixel*Frame) : 0.184
Stream size : 815 MiB (80%)
Writing library : XviD 73

Audio
ID : 1
Format : AC-3
Format/Info : Audio Coding 3
Mode extension : CM (complete main)
Format settings, Endianness : Big
Codec ID : 2000
Duration : 1h 3mn
Bit rate mode : Constant
Bit rate : 448 Kbps
Channel(s) : 6 channels
Channel positions : Front: L C R, Side: L R, LFE
Sampling rate : 48.0 KHz
Bit depth : 16 bits
Compression mode : Lossy
Stream size : 203 MiB (20%)
Alignment : Split accross interleaves
Interleave, duration : 40 ms (1.00 video frame)
Interleave, preload duration : 500 ms



http://rutor.org/torrent/86561/gostja-iz-buduwego-1984-dvdrip

Видео: http://screenshotcomparison.com/comparison/136747 это сравнение первых серий релизов. Особенного отличия нет, просто картинка у меня помягче и кое-где почётче. Но в том релизе нет никаких субтитров!
 
Не забывайте говорить Спасибо. Не уходите с раздачи!   
Торрент: Зарегистрирован [29 июл 2015, 12:04] Для скачивания .torrent
необходима регистрация
Или скачать с помощью
MediaGet
Статус:
Проверен
 
.torrent скачан: 736 раз
Хэш: 0039d0b7812af67c876520e2fc2fc94e78ee8d6c
Размер: 5 ГБ (5 367 388 588 байт)
Стать Автором раздачи
 
 
Раздал: 2.54 ГБ
Скачал: 0 байт
Ратио: Seed.
Сообщения: 236702
Зарегистрирован: 05 июл 2013, 10:11


  • Похожие торренты
    Ответы
    Просмотры
    Последнее сообщение

Вернуться в Сериалы

Ресурс не предоставляет электронные версии произведений, а занимается лишь коллекционированием и каталогизацией ссылок, присылаемых и публикуемых на форуме нашими читателями. Если вы являетесь правообладателем какого-либо представленного материала и не желаете чтобы ссылка на него находилась в нашем каталоге, свяжитесь с нами и мы незамедлительно удалим её. Файлы для обмена на трекере предоставлены пользователями сайта, и администрация не несёт ответственности за их содержание. Просьба не заливать файлы, защищенные авторскими правами, а также файлы нелегального содержания!
cron