Физика света (1-4 серии из 6) / The Physics of Light (2014) SATRip

 
 Статистика раздачи 
Размер: 2.77 ГБ   |  Зарегистрирован: 26 июл 2015, 19:14   |   .torrent скачан: 0 раз
Сидеров: 1  [ 0 байт/сек ]     Личеров: 0  [ 0 байт/сек ]  
  

Физика света (1-4 серии из 6) / The Physics of Light (2014) SATRip

Сообщение bagouser » 26 июл 2015, 19:14

Физика света (1-4 серии из 6) / The Physics of Light (2014) SATRip

Телекомпания: Южная Корея, EBS
Жанр: Документальный

Режиссер: Юн Ки Ли

Описание:
Серия фильмов из 6 частей исследует истинную природу света и пытается предугадать самые невероятные теории физики, начиная рассказ с истоков - с теории относительности Альберта Эйнштейна.

Продолжительность: 4 x 00:48:54
Качество видео: SATRip

Перевод: Дублированный

Видео: Xvid, 720x400, ~1750 kbps
Аудио: AC3, 2 ch, 192 Kbps
Семпл: Скачать
Код:
Код: Выделить всё
General
      Format : AVI
      Format/Info : Audio Video Interleave
      File size : 702 MiB
      Duration : 50mn 18s
      Overall bit rate : 1 952 Kbps
      Movie name : The Physics of Light
      Director : SATRip by Thunder
      Writing application : VirtualDubMod 1.5.10.3 | [url=http://www.virtualdub-fr.org]www.virtualdub-fr.org[/url] || (build 2550/release)
      Original source form/Name : Documentary
   Video #0
      ID : 0
      Format : MPEG-4 Visual
      Format profile : Advanced Simple@L5
      Format settings, BVOP : 1
      Format settings, QPel : No
      Format settings, GMC : No warppoints
      Format settings, Matrix : Default (H.263)
      Codec ID : XVID
      Codec ID/Hint : XviD
      Duration : 50mn 18s
      Bit rate : 1 750 Kbps
      Width : 720 pixels
      Height : 400 pixels
      Display aspect ratio : 16:9
      Frame rate : 25.000 fps
      Color space : YUV
      Chroma subsampling : 4:2:0
      Bit depth : 8 bits
      Scan type : Progressive
      Compression mode : Lossy
      Bits/(Pixel*Frame) : 0.243
      Stream size : 630 MiB (90%)
      Writing library : XviD 1.2.1 (UTC 2008-12-04)
   Audio #1
      ID : 1
      Format : AC-3
      Format/Info : Audio Coding 3
      Mode extension : CM (complete main)
      Format settings, Endianness : Big
      Codec ID : 2000
      Duration : 50mn 18s
      Bit rate mode : Constant
      Bit rate : 192 Kbps
      Channel(s) : 2 channels
      Channel positions : Front: L R
      Sampling rate : 48.0 KHz
      Bit depth : 16 bits
      Compression mode : Lossy
      Stream size : 69.1 MiB (10%)
      Alignment : Split accross interleaves
      Interleave, duration : 40 ms (1.00 video frame)
      Interleave, preload duration : 500 ms
Чтобы переподключиться к раздаче, скачайте заново торрент-файл и перехешируйте задание в клиенте. Возможные причины обновления: добавление серии, альбома, выпуска, обновление версии, улучшение качества раздачи.

Скриншоты:



Время раздачи: с 09:00 до 23:30
 
Не забывайте говорить Спасибо. Не уходите с раздачи!   
Торрент: Зарегистрирован [26 июл 2015, 19:14] Скачать торрент
Скачать торрент
[ Размер 15.09 КБ / Просмотров 227 ]
Статус:
Проверен
 
.torrent скачан: 0 раз
Хэш: 85bfad66fbd347ca8845901ce617e9b14388b360
Размер: 2.77 ГБ (2 970 480 640 байт)
Стать Автором раздачи
 
Аватара пользователя
 
Раздал: 3.77 ТБ
Скачал: 406.3 ГБ
Ратио: 9.496
Сообщения: 468705
Зарегистрирован: 20 янв 2011, 21:15


  • Похожие торренты
    Ответы
    Просмотры
    Последнее сообщение

Вернуться в Интересно обо всем

Ресурс не предоставляет электронные версии произведений, а занимается лишь коллекционированием и каталогизацией ссылок, присылаемых и публикуемых на форуме нашими читателями. Если вы являетесь правообладателем какого-либо представленного материала и не желаете чтобы ссылка на него находилась в нашем каталоге, свяжитесь с нами и мы незамедлительно удалим её. Файлы для обмена на трекере предоставлены пользователями сайта, и администрация не несёт ответственности за их содержание. Просьба не заливать файлы, защищенные авторскими правами, а также файлы нелегального содержания!
cron