4K Sony Demo 2160p [2015,Демо,тестовое видео,Master 2160p,100Mbps]

 
 Статистика раздачи 
Размер: 6.84 ГБ   |  Зарегистрирован: 26 июл 2015, 00:02   |   .torrent скачан: 0 раз
Сидеров: 1  [ 0 байт/сек ]     Личеров: 0  [ 0 байт/сек ]  
  

4K Sony Demo 2160p [2015,Демо,тестовое видео,Master 2160p,100Mbps]

Сообщение bagouser » 26 июл 2015, 00:02

Sony Alpha 7s 4K movie XAVCS 100Mbps
Тип раздаваемого материала:Видео ролик высокого разрешения
Жанр: Демо,тестовое видео
Продолжительность: 00:01:34
Год выпуска: 2015
Страна:Japan,China




Рекламное тестовое видео от компании Sony. Превосходное качество картинки в разрешении 3840x2160 Ultra HD.
Sony Corporation— транснациональная корпорация с штаб-квартирой в Токио (Япония), возникшая 7 мая 1946 года. Сегодня Sony Corporation — одно из операционных подразделений, входящих в состав холдинга Sony Group.
Sony Corporation занимается выпуском домашней и профессиональной электроники, игровых консолей и другой высокотехнологичной продукции.




Качество: Master 2160p
Формат видео: MP4
Видео кодек: H264
Аудио кодек: AAC
Видео: AVC(H.264),96,6 Mbps,3840*2160,23,976 fps
Аудио: PCM,1536 Kbps,2 channels,Front: L R,48.0 KHz
Формат : XAVC
Идентификатор кодека : XAVC
Размер файла : 1,08 Гигабайт
Продолжительность : 1 м. 34 с.
Общий поток : 98,4 Мбит/сек
Дата кодирования : UTC 2015-06-04 10:40:51
Дата пометки : UTC 2015-06-04 10:52:50
�TIM : 00:00:00:00
�TSC : 24000
�TSZ : 1001

Видео
Идентификатор : 1
Формат : AVC
Формат/Информация : Advanced Video Codec
Профайл формата : High@L5.1
Параметры CABAC формата : Да
Параметры ReFrames формата : 2 кадры
Идентификатор кодека : avc1
Идентификатор кодека/Информация : Advanced Video Coding
Продолжительность : 1 м. 34 с.
Вид битрейта : Переменный
Битрейт : 96,6 Мбит/сек
Ширина : 3840 пикс.
Высота : 2160 пикс.
Соотношение кадра : 16/9
Режим частоты кадров : Постоянный
Частота кадров : 23,976 кадр/сек
Разрешение : 24 бит
Колориметрия : 4:2:0
Тип развёртки : Прогрессивная
Бит/(Пиксели*Кадры) : 0.486
Размер потока : 1,06 Гигабайт (98%)
Язык : English
Дата кодирования : UTC 2015-06-04 10:40:51
Дата пометки : UTC 2015-06-04 10:40:51

Аудио
Идентификатор : 2
Формат : PCM
Параметры Endianness формата : Big
Параметры Sign формата : Signed
Идентификатор кодека : twos
Продолжительность : 1 м. 34 с.
Вид битрейта : Постоянный
Битрейт : 1536 Кбит/сек
Канал(ы) : 2 канала(ов)
Частота : 48,0 КГц
Разрешение : 16 бит
Размер потока : 17,3 Мегабайт (2%)
Язык : English
Дата кодирования : UTC 2015-06-04 10:40:51
Дата пометки : UTC 2015-06-04 10:40:51
Sony Alpha 7s The Ultimate movie in Super 35mm
#77Тип раздаваемого материала:Видео ролик высокого разрешения
Жанр: Демо,тестовое видео
Продолжительность:00:01:29
Год выпуска: 2015
Страна:Japan,China


Красивые традиционные пейзажи деревни Сиракава-Го и Гокаяма который является одним из объектов всемирного наследия в Японии.Исторические сёла, расположенные в труднодоступном горном районе острова Хонсю, который в зимнее время бывал подолгу отрезан от остальной части Японии.Сиракава-го и Гокаяма внесены в Список всемирного наследия ЮНЕСКО как выдающийся пример традиционного образа жизни, прекрасно приспособленного к окружающей среде и местным социальным и экономическим условиям. Снятая с разрешением 4K на камеру Sony Alpha 7s в формате 4K 35мм.


Качество:WEBRip
Формат видео: MOV
Видео кодек: ProRes
Аудио кодек: PCM
Видео: ProRes,264 Mbps,2560*1440,23,976 fps
Аудио: PCM,1536 Kbps,2 channels,Front: L R,48.0 KHz
Format : MPEG-4
Format profile : QuickTime
Codec ID : qt
File size : 2.77 GiB
Duration : 1mn 29s
Overall bit rate mode : Variable
Overall bit rate : 265 Mbps
Encoded date : UTC 2015-06-10 18:52:05
Tagged date : UTC 2015-06-10 18:55:38
Writing library : Apple QuickTime
©TIM : 00:00:00:00
©TSC : 24000
©TSZ : 1001

Video
ID : 1
Format : ProRes
Format version : Version 0
Format profile : High
Codec ID : apch
Duration : 1mn 29s
Bit rate mode : Variable
Bit rate : 264 Mbps
Width : 2 560 pixels
Height : 1 440 pixels
Display aspect ratio : 16:9
Frame rate mode : Constant
Frame rate : 23.976 fps
Color space : YUV
Chroma subsampling : 4:2:2
Scan type : Progressive
Bits/(Pixel*Frame) : 2.983
Stream size : 2.76 GiB (99%)
Writing library : Apple
Language : English
Encoded date : UTC 2015-06-10 18:52:05
Tagged date : UTC 2015-06-10 18:52:05
Color primaries : BT.709
Transfer characteristics : BT.709
Matrix coefficients : BT.709

Audio
ID : 2
Format : PCM
Format settings, Endianness : Little
Format settings, Sign : Signed
Codec ID : sowt
Duration : 1mn 29s
Bit rate mode : Constant
Bit rate : 1 536 Kbps
Channel(s) : 2 channels
Channel positions : Front: L R
Sampling rate : 48.0 KHz
Bit depth : 16 bits
Stream size : 16.4 MiB (1%)
Language : English
Encoded date : UTC 2015-06-10 18:52:05
Tagged date : UTC 2015-06-10 18:52:05

Other
ID : 3
Type : Time code
Format : QuickTime TC
Duration : 1mn 29s
Time code of first frame : 00:00:00:00
Time code settings : Striped
Language : English
Encoded date : UTC 2015-06-10 18:52:05
Tagged date : UTC 2015-06-10 18:52:05
α7R The Ultimate High 4K movie in Super 35mm
Sony FS700 Footage
#77Тип раздаваемого материала:Тестовое видео
Жанр: Демо,тестовое видео
Производство: Homeboy Studio
Продолжительность:00:01:59
Год выпуска: 2013
Страна:Japan,China


Видео снято на камеру Sony Alpha.Sony недавно опубликовала новую камеру SONY FS700 4K с поддержкой кодека XAVC , это должно быть SONY FS700 второго поколения ультра-высокоскоростной волшебный камеры. Участник рекламы Ли Wentao,4k весь процесс и обработка видео осуществляется Homeboy Studio.






Качество:WEBRip
Формат видео: MOV
Видео кодек: ProRes
Аудио кодек: PCM
Видео: ProRes,149 Mbps,1920*1080,24.000 fps
Аудио: PCM,1536 Kbps,2 channels,Front: L R,48.0 KHz
Format : MPEG-4
Format profile : QuickTime
Codec ID : qt
File size : 2.10 GiB
Duration : 1mn 59s
Overall bit rate mode : Variable
Overall bit rate : 151 Mbps
Encoded date : UTC 2013-08-20 16:18:41
Tagged date : UTC 2013-08-20 16:20:51
Writing library : Apple QuickTime
Media/UUID : D43CBD52-9B09-4547-A743-843ECFF8C665

Video
ID : 1
Format : ProRes
Format version : Version 0
Format profile : High
Codec ID : apch
Duration : 1mn 59s
Bit rate mode : Variable
Bit rate : 149 Mbps
Width : 1 888 pixels
Original width : 1 920 pixels
Height : 1 062 pixels
Original height : 1 080 pixels
Display aspect ratio : 16:9
Frame rate mode : Constant
Frame rate : 24.000 fps
Color space : YUV
Chroma subsampling : 4:2:2
Scan type : Progressive
Bits/(Pixel*Frame) : 3.106
Stream size : 2.08 GiB (99%)
Writing library : Apple
Language : English
Encoded date : UTC 2013-08-20 16:18:41
Tagged date : UTC 2013-08-20 16:20:51
Color primaries : BT.709
Transfer characteristics : BT.709
Matrix coefficients : BT.709

Audio
ID : 2
Format : PCM
Format settings, Endianness : Little
Format settings, Sign : Signed
Codec ID : sowt
Duration : 1mn 59s
Bit rate mode : Constant
Bit rate : 1 536 Kbps
Channel(s) : 2 channels
Channel positions : Front: L R
Sampling rate : 48.0 KHz
Bit depth : 16 bits
Stream size : 21.9 MiB (1%)
Language : English
Encoded date : UTC 2013-08-20 16:18:41
Tagged date : UTC 2013-08-20 16:20:51

Other
ID : 3
Type : Time code
Format : QuickTime TC
Duration : 1mn 59s
Time code of first frame : 01:00:00:00
Time code settings : Striped
Language : English
Encoded date : UTC 2013-08-20 16:20:51
Tagged date : UTC 2013-08-20 16:20:51
Sony Alpha 7s Arbroath Smokies
#77Тип раздаваемого материала:Тестовое видео
Жанр: Демо,тестовое видео
Продолжительность: 00:03:59
Режиссер:Den Lennie
Год выпуска: 2014
Страна:U.S.A





Den Lennie-В начале февраля, компания Sony попросила меня снять фильм, первый фильм в 1080p мы снимали в Шотландии в небольшом городке под названием Арброат, где они коптят свежую пикшу традиционным способом. Пикша, которую нельзя сделать дома. Разве что вы живете в окрестностях шотландского городка Арброт. Фирменная Arbroath Smokie может быть приготовлена в радиусе 4 километров от центра этого города, что строго контролируется Европейским союзом.





Качество:WEBRip
Формат видео: MP4
Видео кодек: H264
Аудио кодек:AAC
Видео: AVC(h264),31 Mbps,1920*1080,23,976 fps
Аудио: AAC,200 Kbps,2 channels,Front: L R,48.0 KHz
Формат : MPEG-4
Профайл формата : Base Media / Version 2
Идентификатор кодека : mp42
Размер файла : 903 Мегабайт
Продолжительность : 3 м. 59 с.
Общий поток : 31,6 Мбит/сек
Дата кодирования : UTC 2014-04-05 19:45:35
Дата пометки : UTC 2014-04-05 19:45:45
�TIM : 00:00:00:00
�TSC : 24000
�TSZ : 1001

Видео
Идентификатор : 1
Формат : AVC
Формат/Информация : Advanced Video Codec
Профайл формата : Main@L4.2
Параметры CABAC формата : Да
Параметры ReFrames формата : 3 кадры
Идентификатор кодека : avc1
Идентификатор кодека/Информация : Advanced Video Coding
Продолжительность : 3 м. 59 с.
Вид битрейта : Переменный
Битрейт : 31,4 Мбит/сек
Ширина : 1920 пикс.
Высота : 1080 пикс.
Соотношение кадра : 16/9
Режим частоты кадров : Переменный
Частота кадров : 23,976 кадр/сек
Минимальная частота кадров : 23,976 кадр/сек
Максимальная частота кадров : 23,988 кадр/сек
Стандарт вещания : NTSC
Разрешение : 24 бит
Колориметрия : 4:2:0
Тип развёртки : Прогрессивная
Бит/(Пиксели*Кадры) : 0.632
Размер потока : 897 Мегабайт (99%)
Язык : English
Дата кодирования : UTC 2014-04-05 19:45:35
Дата пометки : UTC 2014-04-05 19:45:35

Аудио
Идентификатор : 2
Формат : AAC
Формат/Информация : Advanced Audio Codec
Версия формата : Version 4
Профайл формата : LC
Параметры SBR формата : Нет
Идентификатор кодека : 40
Продолжительность : 3 м. 59 с.
Вид битрейта : Переменный
Битрейт : 192 Кбит/сек
Максимальный битрейт : 281 Кбит/сек
Канал(ы) : 2 канала(ов)
Расположение каналов : L R
Частота : 48,0 КГц
Разрешение : 16 бит
Размер потока : 5,41 Мегабайт (1%)
Язык : English
Дата кодирования : UTC 2014-04-05 19:45:35
Дата пометки : UTC 2014-04-05 19:45:35
Bali KineMAX 6K ProRes
Timelapse Fulldome 8K Master
HD.Club lapping 12K
4K HD.Club West s Studio
 
Не забывайте говорить Спасибо. Не уходите с раздачи!   
Торрент: Зарегистрирован [26 июл 2015, 00:02] Для скачивания .torrent
необходима регистрация
Или скачать с помощью
MediaGet
Статус:
Проверен
 
.torrent скачан: 0 раз
Хэш: 52084946f4f86cb904f9d1287ba3f240eea87a81
Размер: 6.84 ГБ (7 342 433 847 байт)
Стать Автором раздачи
 
Аватара пользователя
 
Раздал: 3.77 ТБ
Скачал: 406.3 ГБ
Ратио: 9.496
Сообщения: 468463
Зарегистрирован: 20 янв 2011, 21:15


Вернуться в Видео (Другое)

Ресурс не предоставляет электронные версии произведений, а занимается лишь коллекционированием и каталогизацией ссылок, присылаемых и публикуемых на форуме нашими читателями. Если вы являетесь правообладателем какого-либо представленного материала и не желаете чтобы ссылка на него находилась в нашем каталоге, свяжитесь с нами и мы незамедлительно удалим её. Файлы для обмена на трекере предоставлены пользователями сайта, и администрация не несёт ответственности за их содержание. Просьба не заливать файлы, защищенные авторскими правами, а также файлы нелегального содержания!
cron