Крик / Scream (2015) WEB-DLRip [H.264] (Сезон 1, серия 1-4 из 10) LostFilm [MP4|960х544] (обновляемая)

 
 Статистика раздачи 
Размер: 2.88 ГБ   |  Зарегистрирован: 25 июл 2015, 19:13   |   .torrent скачан: 0 раз
Сидеров: 1  [ 0 байт/сек ]     Личеров: 0  [ 0 байт/сек ]  
  

Крик / Scream (2015) WEB-DLRip [H.264] (Сезон 1, серия 1-4 из 10) LostFilm [MP4|960х544] (обновляемая)

Сообщение Seepas » 25 июл 2015, 19:13

Крик / Scream (2015) WEB-DLRip

Производство: США
Жанр: Ужасы, Криминал, Детектив

Режиссер: Ли Джаньяк, Джулиус Рамсей, Джеми Трэвис
Актеры: Уилла Фицджералд, Бекс Тейлор-Клаус, Карлсон Янг, Джон Карна, Коннор Вейл, Бобби Кампо, Амадеус Серафини, Том Мэден, Трэйси Миддендорф, Майк Вон

Описание:
То, что начиналось как обычное видео на YouTube, вскоре оборачивается проблемами для подростков Лейквуда и служит катализатором для убийства, которое открывает окно в тяжелое прошлое города.


Дата мировой премьеры: 30 июня 2015

Продолжительность: ~00:44:00 x 4
Качество видео: WEB-DLRip
Перевод: Многоголосый закадровый (LostFilm)

Видео: AVC/H.264, 960x544, ~2345 Kbps
Аудио: AAC, 2 ch, ~160 Kbps (русский)
Код:
Код: Выделить всё
General
Complete name                            : Крик (2015) 01 сеэон\Scream.S01E01.mp4
Format                                   : MPEG-4
Format profile                           : Base Media
Codec ID                                 : isom
File size                                : 790 MiB
Duration                                 : 44mn 3s
Overall bit rate mode                    : Variable
Overall bit rate                         : 2 506 Kbps
Season                                   : 1
Movie name                               : Scream
Part                                     : 1
Part/Position                            : 1
Track name/Position                      : 1
ContentType                              : TV Show
Encoded date                             : UTC 2015-07-06 13:03:53
Tagged date                              : UTC 2015-07-06 13:04:19
Title/Sort                               : Scream

Video
ID                                       : 1
Format                                   : AVC
Format/Info                              : Advanced Video Codec
Format profile                           :
Format settings, CABAC                   : Yes
Format settings, ReFrames                : 3 frames
Codec ID                                 : avc1
Codec ID/Info                            : Advanced Video Coding
Duration                                 : 44mn 3s
Bit rate                                 : 2 345 Kbps
Maximum bit rate                         : 6 227 Kbps
Width                                    : 960 pixels
Height                                   : 544 pixels
Display aspect ratio                     : 16:9
Frame rate mode                          : Constant
Frame rate                               : 23.976 fps
Color space                              : YUV
Chroma subsampling                       : 4:2:0
Bit depth                                : 8 bits
Scan type                                : Progressive
Bits/(Pixel*Frame)                       : 0.187
Stream size                              : 737 MiB (93%)
Writing library                          : x264 core 116 r2019M 9cc407d
Encoding settings                        : cabac=1 / ref=3 / deblock=1:-1:-1 / analyse=0x1:0x131 / me=hex / subme=7 / psy=1 / psy_rd=1.00:0.15 / mixed_ref=1 / me_range=16 / chroma_me=1 / trellis=1 / 8x8dct=0 / cqm=0 / deadzone=21,11 / fast_pskip=1 / chroma_qp_offset=-3 / threads=8 / sliced_threads=0 / nr=0 / decimate=1 / interlaced=0 / bluray_compat=0 / constrained_intra=0 / bframes=3 / b_pyramid=0 / b_adapt=2 / b_bias=0 / direct=3 / weightb=1 / open_gop=0 / weightp=0 / keyint=230 / keyint_min=23 / scenecut=40 / intra_refresh=0 / rc_lookahead=40 / rc=2pass / mbtree=1 / bitrate=2345 / ratetol=1.0 / qcomp=0.60 / qpmin=10 / qpmax=51 / qpstep=4 / cplxblur=20.0 / qblur=0.5 / vbv_maxrate=5000 / vbv_bufsize=1835 / nal_hrd=none / ip_ratio=1.40 / aq=1:1.00
Language                                 : English
Encoded date                             : UTC 2015-07-06 13:03:53
Tagged date                              : UTC 2015-07-06 13:03:59

Audio
ID                                       : 2
Format                                   : AAC
Format/Info                              : Advanced Audio Codec
Format profile                           : LC
Codec ID                                 : 40
Duration                                 : 43mn 30s
Bit rate mode                            : Variable
Bit rate                                 : 160 Kbps
Maximum bit rate                         : 207 Kbps
Channel(s)                               : 2 channels
Channel positions                        : Front: L R
Sampling rate                            : 48.0 KHz
Compression mode                         : Lossy
Stream size                              : 49.8 MiB (6%)
Language                                 : Russian
Encoded date                             : UTC 2015-07-06 13:03:57
Tagged date                              : UTC 2015-07-06 13:03:59
01. Pilot / Пилот
02. Hello, Emma / Алло, Эмма
03. Wanna Play a Game? / Хочешь поиграть?
04. Aftermath / Последствия
Внимание! Раздача ведётся путём добавления новых серий; при каждом добавлении создаётся новый торрент.
Чтобы начать докачку новой серии, пользователям необходимо сделать следующее:
1. Остановить скачивание;
2. Удалить старый торрент у себя из клиента (старые серии удалять не надо);
3. Скачать новый торрент и запустить его у себя в клиенте вместо старого, при этом указать клиенту путь в старую папку куда и должно происходить скачивание новых серий. Ваш клиент при этом должен произвести хеширование (проверку) старой папки и будет докачивать только те серии, которых у вас ещё нет. Старые серии при этом не удаляются, а продолжают раздаваться! Eсли вы уже удалили старые серии, то предотвратить повторную закачку старых серий можно, отжав галочку в соответствующих местах при запуске нового торрента.

Скриншоты:



Время раздачи: 24/7 до трёх скачавших

[url=http://nnm-club.me/?q=Scream+%F1%E5%E7%EE%ED&w=title[text]Все раздачи сериала "Крик / Scream (2015) на NoNaMe Clab"
[/url]
 
Не забывайте говорить Спасибо. Не уходите с раздачи!   
Торрент: Зарегистрирован [25 июл 2015, 19:13] Для скачивания .torrent
необходима регистрация
Или скачать с помощью
MediaGet
Статус:
Проверен
 
.torrent скачан: 0 раз
Хэш: 99a8f24981e88c22373db9ecac90d156a29edad7
Размер: 2.88 ГБ (3 095 198 446 байт)
Стать Автором раздачи
 
 
Раздал: 0 байт
Скачал: 0 байт
Ратио: Inf.
Сообщения: 188877
Зарегистрирован: 14 июн 2014, 20:46


  • Похожие торренты
    Ответы
    Просмотры
    Последнее сообщение

Вернуться в Видео для мобильных устройств

Ресурс не предоставляет электронные версии произведений, а занимается лишь коллекционированием и каталогизацией ссылок, присылаемых и публикуемых на форуме нашими читателями. Если вы являетесь правообладателем какого-либо представленного материала и не желаете чтобы ссылка на него находилась в нашем каталоге, свяжитесь с нами и мы незамедлительно удалим её. Файлы для обмена на трекере предоставлены пользователями сайта, и администрация не несёт ответственности за их содержание. Просьба не заливать файлы, защищенные авторскими правами, а также файлы нелегального содержания!
cron