Da Vinci Learning: Музыка мозга / Music of the Brain (2009) SATRip

 
 Статистика раздачи 
Размер: 876.35 МБ   |  Зарегистрирован: 22 июл 2015, 12:31   |   .torrent скачан: 1 раз
Сидеров: 1  [ 0 байт/сек ]     Личеров: 0  [ 0 байт/сек ]  
  

Da Vinci Learning: Музыка мозга / Music of the Brain (2009) SATRip

Сообщение PetaByte » 22 июл 2015, 12:31

Da Vinci Learning: Музыка мозга / Music of the Brain (2009) SATRip

Телекомпания: F-Reel
Режиссер: Fiona Cochrane
Жанр: Документальный, человек и культура

Описание:
Документальный фильм изучает роль музыки в развитии нашего мозга, рассматривает влияние музыки на недоношенных и подрастающих детей, а также исследует роль музыкотерапии в работе со стационарными больными и пожилыми людьми.

Продолжительность: 00:55:44
Качество видео: SATRip

Перевод: Двуголосый закадровый, профессиональный

Видео: Xvid, 720x400, ~25fps ~1800 Kbps
Аудио: AC3, 2 ch,
Аудио 1: (Rus) 48kHz, 192 kbps
Аудио 2: (Ukr) 48 KHz, 192 Kbps
Код:
Код: Выделить всё
Format                         : AVI
Format/Info                    : Audio Video Interleave
File size                      : 876 MiB
Duration                       : 55mn 44s
Overall bit rate               : 2 198 Kbps
Writing application            : VirtualDubMod 1.5.10.3 | [url=http://www.virtualdub-fr.org]www.virtualdub-fr.org[/url] || (build 2550/release)
Writing library                : VirtualDubMod build 2550/release

Video
ID                             : 0
Format                         : MPEG-4 Visual
Format profile                 : Advanced Simple@L5
Format settings, BVOP          : 2
Format settings, QPel          : Yes
Format settings, GMC           : 3 warppoints
Format settings, Matrix        : Default (H.263)
Codec ID                       : XVID
Codec ID/Hint                  : XviD
Duration                       : 55mn 44s
Bit rate                       : 1 800 Kbps
Width                          : 720 pixels
Height                         : 400 pixels
Display aspect ratio           : 16:9
Frame rate                     : 25.000 fps
Color space                    : YUV
Chroma subsampling             : 4:2:0
Bit depth                      : 8 bits
Scan type                      : Progressive
Compression mode               : Lossy
Bits/(Pixel*Frame)             : 0.250
Stream size                    : 717 MiB (82%)
Writing library                : XviD 1.2.1 (UTC 2008-12-04)

Audio #1
ID                             : 1
Format                         : AC-3
Format/Info                    : Audio Coding 3
Mode extension                 : CM (complete main)
Format settings, Endianness    : Big
Codec ID                       : 2000
Duration                       : 55mn 44s
Bit rate mode                  : Constant
Bit rate                       : 192 Kbps
Channel(s)                     : 2 channels
Channel positions              : Front: L R
Sampling rate                  : 48.0 KHz
Compression mode               : Lossy
Stream size                    : 76.5 MiB (9%)
Alignment                      : Split accross interleaves
Interleave, duration           : 40 ms (1.00 video frame)
Interleave, preload duration   : 500 ms

Audio #2
ID                             : 2
Format                         : AC-3
Format/Info                    : Audio Coding 3
Mode extension                 : CM (complete main)
Format settings, Endianness    : Big
Codec ID                       : 2000
Duration                       : 55mn 44s
Bit rate mode                  : Constant
Bit rate                       : 192 Kbps
Channel(s)                     : 2 channels
Channel positions              : Front: L R
Sampling rate                  : 48.0 KHz
Compression mode               : Lossy
Stream size                    : 76.5 MiB (9%)
Alignment                      : Split accross interleaves
Interleave, duration           : 40 ms (1.00 video frame)
Interleave, preload duration   : 500 ms

Скриншоты:




Время раздачи: до 23:00 к.в.

 
Не забывайте говорить Спасибо. Не уходите с раздачи!   
Торрент: Зарегистрирован [22 июл 2015, 12:31] Для скачивания .torrent
необходима регистрация
Или скачать с помощью
MediaGet
Статус:
Проверен
 
.torrent скачан: 1 раз
Хэш: abd90c10cde1d5c0454ce2f6d3c86e7b8163d1d7
Размер: 876.35 МБ (918 921 216 байт)
Стать Автором раздачи
 
 
Раздал: 10 ГБ
Скачал: 8 МБ
Ратио: 1280.000
Сообщения: 234240
Зарегистрирован: 22 фев 2013, 11:10


  • Похожие торренты
    Ответы
    Просмотры
    Последнее сообщение

Вернуться в Da Vinci Learning

Ресурс не предоставляет электронные версии произведений, а занимается лишь коллекционированием и каталогизацией ссылок, присылаемых и публикуемых на форуме нашими читателями. Если вы являетесь правообладателем какого-либо представленного материала и не желаете чтобы ссылка на него находилась в нашем каталоге, свяжитесь с нами и мы незамедлительно удалим её. Файлы для обмена на трекере предоставлены пользователями сайта, и администрация не несёт ответственности за их содержание. Просьба не заливать файлы, защищенные авторскими правами, а также файлы нелегального содержания!
cron