Kiss: Жизнь в Нюрбургринге / Kiss: Live in Nurburgring (2010) HDRip [H.264] [MP4|960х544]

 
 Статистика раздачи 
Размер: 2 ГБ   |  Зарегистрирован: 21 июл 2015, 17:42   |   .torrent скачан: 0 раз
Сидеров: 1  [ 0 байт/сек ]     Личеров: 0  [ 0 байт/сек ]  
  

Kiss: Жизнь в Нюрбургринге / Kiss: Live in Nurburgring (2010) HDRip [H.264] [MP4|960х544]

Сообщение Thistoll » 21 июл 2015, 17:42

Kiss: Жизнь в Нюрбургринге / Kiss: Live in Nurburgring (2010) HDRip

Производство: Мексика
Жанр: Рок, Глэм-рок, Хард-рок, Хэви-метал

Актеры: Пауль Стенли - вокал, ритм-гитара; Джини Симмонс - бас, бек-вокал; Томми Тайер - соло-гитара, бек-вокал; Эрик Сингер - ударные

Описание:
KISS: концерт в Нюрбургринге (Германия) 3 июня 2010 года. Kiss — американская рок-группа, основанная в Нью-Йорке в январе 1973 года, играющая в жанрах глэм-рок, глэм-метал, шок-рок, хард-рок и хэви-метал и известная сценическими макияжами её участников, а также концертными шоу, сопровождающимися различными пиротехническими эффектами...

Продолжительность: 01:54:02
Качество видео: HDRip
Перевод: Отсутствует

Видео: AVC/H.264, 960х544 pixels, ~2345 Kbps
Аудио: AAC, 2 ch, ~160, VBR (english) original
Код:
Код: Выделить всё
General
Complete name                            : Kiss_Live_in_Nurburgring_2010_NNM-Club.mp4
Format                                   : MPEG-4
Format profile                           : Base Media
Codec ID                                 : isom
File size                                : 2.00 GiB
Duration                                 : 1h 54mn
Overall bit rate mode                    : Variable
Overall bit rate                         : 2 509 Kbps
Movie name                               : Kiss:_Live_in_Nurburgring_2010_[NoNaMe Club] [rip by alien.09]
ContentType                              : Music Video
Encoded date                             : UTC 2015-07-20 21:22:27
Tagged date                              : UTC 2015-07-20 21:24:35

Video
ID                                       : 1
Format                                   : AVC
Format/Info                              : Advanced Video Codec
Format profile                           :
Format settings, CABAC                   : Yes
Format settings, ReFrames                : 3 frames
Codec ID                                 : avc1
Codec ID/Info                            : Advanced Video Coding
Duration                                 : 1h 54mn
Bit rate                                 : 2 345 Kbps
Maximum bit rate                         : 6 166 Kbps
Width                                    : 960 pixels
Height                                   : 544 pixels
Display aspect ratio                     : 16:9
Frame rate mode                          : Constant
Frame rate                               : 24.000 fps
Color space                              : YUV
Chroma subsampling                       : 4:2:0
Bit depth                                : 8 bits
Scan type                                : Progressive
Bits/(Pixel*Frame)                       : 0.187
Stream size                              : 1.87 GiB (93%)
Writing library                          : x264 core 116 r2019M 9cc407d
Encoding settings                        : cabac=1 / ref=3 / deblock=1:-1:-1 / analyse=0x1:0x131 / me=hex / subme=7 / psy=1 / psy_rd=1.00:0.15 / mixed_ref=1 / me_range=16 / chroma_me=1 / trellis=1 / 8x8dct=0 / cqm=0 / deadzone=21,11 / fast_pskip=1 / chroma_qp_offset=-3 / threads=12 / sliced_threads=0 / nr=0 / decimate=1 / interlaced=0 / bluray_compat=0 / constrained_intra=0 / bframes=3 / b_pyramid=0 / b_adapt=2 / b_bias=0 / direct=3 / weightb=1 / open_gop=0 / weightp=0 / keyint=240 / keyint_min=24 / scenecut=40 / intra_refresh=0 / rc_lookahead=40 / rc=2pass / mbtree=1 / bitrate=2345 / ratetol=1.0 / qcomp=0.60 / qpmin=10 / qpmax=51 / qpstep=4 / cplxblur=20.0 / qblur=0.5 / vbv_maxrate=5000 / vbv_bufsize=1835 / nal_hrd=none / ip_ratio=1.40 / aq=1:1.00
Language                                 : English
Encoded date                             : UTC 2015-07-20 21:22:27
Tagged date                              : UTC 2015-07-20 21:23:02

Audio
ID                                       : 2
Format                                   : AAC
Format/Info                              : Advanced Audio Codec
Format profile                           : LC
Codec ID                                 : 40
Duration                                 : 1h 54mn
Bit rate mode                            : Variable
Bit rate                                 : 160 Kbps
Maximum bit rate                         : 199 Kbps
Channel(s)                               : 2 channels
Channel positions                        : Front: L R
Sampling rate                            : 48.0 KHz
Compression mode                         : Lossy
Stream size                              : 131 MiB (6%)
Language                                 : English
Encoded date                             : UTC 2015-07-20 21:22:58
Tagged date                              : UTC 2015-07-20 21:23:02
01. Modern Day Delilah
02. Cold Gin
03. Let Me Go, Rock 'N'
04. Firehouse
05. Say Yeah
06. Deuce
07. Crazy Crazy Nights
08. Calling Dr. Love
09. Shock Me
10. I'm An Animal
11. 100,000 Years
12. I Love It Loud
13. Love Gun
14. Black Diamond
15. Detroit Rock City
16. Beth
17. Lick It Up
18. Shout It Out Loud
19. I Was Made For Lovin' You
20. God Gave Rock 'n' Roll to You II
21. Rock And Roll All Nite

Скриншоты:


Время раздачи: 24/7 до трёх скачавших
 
Не забывайте говорить Спасибо. Не уходите с раздачи!   
Торрент: Зарегистрирован [21 июл 2015, 17:42] Для скачивания .torrent
необходима регистрация
Или скачать с помощью
MediaGet
Статус:
Проверен
 
.torrent скачан: 0 раз
Хэш: 8bae39e426efc78cea630f492ab84f2673d359c3
Размер: 2 ГБ (2 146 075 358 байт)
Стать Автором раздачи
 
 
Раздал: 6.67 ГБ
Скачал: 302.5 МБ
Ратио: 22.576
Сообщения: 374198
Зарегистрирован: 17 апр 2014, 11:05


  • Похожие торренты
    Ответы
    Просмотры
    Последнее сообщение

Вернуться в Видео для мобильных устройств

Ресурс не предоставляет электронные версии произведений, а занимается лишь коллекционированием и каталогизацией ссылок, присылаемых и публикуемых на форуме нашими читателями. Если вы являетесь правообладателем какого-либо представленного материала и не желаете чтобы ссылка на него находилась в нашем каталоге, свяжитесь с нами и мы незамедлительно удалим её. Файлы для обмена на трекере предоставлены пользователями сайта, и администрация не несёт ответственности за их содержание. Просьба не заливать файлы, защищенные авторскими правами, а также файлы нелегального содержания!
cron