Человек-муравей / Ant-Man (2015) CamRip [H.264] [EN]

 
 Статистика раздачи 
Размер: 1.52 ГБ   |  Зарегистрирован: 21 июл 2015, 17:35   |   .torrent скачан: 4 раз
Сидеров: 1  [ 0 байт/сек ]     Личеров: 0  [ 0 байт/сек ]  
  

Человек-муравей / Ant-Man (2015) CamRip [H.264] [EN]

Сообщение Thistoll » 21 июл 2015, 17:35

Человек-муравей / Ant-Man (2015) CamRip [ENG]

Производство: США
Жанр: Фантастика, Боевик, Комедия

Режиссер: Пейтон Рид
Актеры: Пол Радд, Майкл Дуглас, Эванджелин Лилли, Кори Столл, Майкл Пенья, Бобби Каннавале, Ти-Ай, Давид Дастмалчян, Эбби Райдер Фортсон, Джуди Грир

Описание:
Вооружившись удивительной способностью уменьшаться в размере, но обладать при этом большой силой, мошенник Скотт Лэнг должен стать героем и помочь своему наставнику, доктору Хэнку Пиму, сохранить в тайне существование костюма Человека-муравья от угроз нового поколения.


Дата мировой премьеры: 29 июня 2015
Дата премьеры в России: 16 июля 2015, «WDSSPR»
Дата премьеры в Украине: 16 июля 2015, «B&H Film Distribution Company»

Продолжительность: 01:42:10
Качество видео: CamRip
Язык: Английский
Перевод: Отсутствует
Субтитры: Отсутствуют

Видео: AVC/H.264, 688x366, ~2000 Kbps
Аудио: AAC, 2 ch, 123 Kbps
Семпл: Скачать
Код:
Код: Выделить всё
Общее
Полное имя                               : C:\Users\Daniil\Downloads\ANT-MAN.2015.CamRip.mp4
Формат                                   : MPEG-4
Профиль формата                          : Base Media
Идентификатор кодека                     : isom
Размер файла                             : 1,52 Гбайт
Продолжительность                        : 1 ч. 42 м.
Режим общего битрейта                    : Переменный
Общий поток                              : 2127 Кбит/сек
Программа кодирования                    : Lavf56.25.101

Видео
Идентификатор                            : 1
Формат                                   : AVC
Формат/Информация                        : Advanced Video Codec
Профиль формата                          :
Параметр CABAC формата                   : Нет
Параметр ReFrames формата                : 1 кадр
Идентификатор кодека                     : avc1
Идентификатор кодека/Информация          : Advanced Video Coding
Продолжительность                        : 1 ч. 42 м.
Битрейт                                  : 2000 Кбит/сек
Ширина                                   : 688 пикселей
Высота                                   : 366 пикселей
Соотношение сторон                       : 1,880
Соотношение сторон в оригинале           : 16:9
Режим частоты кадров                     : Переменный
Частота кадров                           : 29,970 кадров/сек
Минимальная частота кадров               : 14,986 кадров/сек
Максимальная частота кадров              : 29,971 кадров/сек
Цветовое пространство                    : YUV
Субдискретизация насыщенности            : 4:2:0
Битовая глубина                          : 8 бит
Тип развёртки                            : Прогрессивная
Бит/(Пиксели*Кадры)                      : 0.265
Размер потока                            : 1,42 Гбайт (94%)
Библиотека кодирования                   : x264 core 118
Настройки программы                      : cabac=0 / ref=1 / deblock=1:0:0 / analyse=0x1:0x111 / me=dia / subme=0 / psy=0 / mixed_ref=0 / me_range=16 / chroma_me=1 / trellis=0 / 8x8dct=0 / cqm=0 / deadzone=21,11 / fast_pskip=1 / chroma_qp_offset=0 / threads=1 / sliced_threads=0 / nr=0 / decimate=1 / interlaced=0 / bluray_compat=0 / constrained_intra=0 / bframes=0 / weightp=0 / keyint=250 / keyint_min=25 / scenecut=0 / intra_refresh=0 / rc=abr / mbtree=0 / bitrate=2000 / ratetol=1.0 / qcomp=0.60 / qpmin=10 / qpmax=51 / qpstep=4 / ip_ratio=1.40 / aq=0

Аудио
Идентификатор                            : 2
Формат                                   : AAC
Формат/Информация                        : Advanced Audio Codec
Профиль формата                          : LC
Идентификатор кодека                     : 40
Продолжительность                        : 1 ч. 42 м.
Вид битрейта                             : Переменный
Битрейт                                  : 123 Кбит/сек
Максимальный битрейт                     : 128 Кбит/сек
Каналы                                   : 2 канала
Расположение каналов                     : Front: L R
Частота                                  : 48,0 КГц
Метод сжатия                             : С потерями
Размер потока                            : 90,2 Мбайт (6%)
Язык                                     : unk

Скриншоты:



Время раздачи: До 5 скачавших
 
Не забывайте говорить Спасибо. Не уходите с раздачи!   
Торрент: Зарегистрирован [21 июл 2015, 17:35] Для скачивания .torrent
необходима регистрация
Или скачать с помощью
MediaGet
Статус:
Проверен
 
.torrent скачан: 4 раз
Хэш: afc97f2cfeb7feca4141a643c093d6b2cdcd73ab
Размер: 1.52 ГБ (1 630 133 977 байт)
Стать Автором раздачи
 
 
Раздал: 6.67 ГБ
Скачал: 302.5 МБ
Ратио: 22.576
Сообщения: 374198
Зарегистрирован: 17 апр 2014, 11:05


  • Похожие торренты
    Ответы
    Просмотры
    Последнее сообщение

Вернуться в Видео для мобильных устройств

Ресурс не предоставляет электронные версии произведений, а занимается лишь коллекционированием и каталогизацией ссылок, присылаемых и публикуемых на форуме нашими читателями. Если вы являетесь правообладателем какого-либо представленного материала и не желаете чтобы ссылка на него находилась в нашем каталоге, свяжитесь с нами и мы незамедлительно удалим её. Файлы для обмена на трекере предоставлены пользователями сайта, и администрация не несёт ответственности за их содержание. Просьба не заливать файлы, защищенные авторскими правами, а также файлы нелегального содержания!
cron