Da Vinci Learning: BBC: Джимми Дохерти в Саду Дарвина / Jimmy Doherty in Darwin's Garden [серии 1-3 из 3] (2009) SATRip

 
 Статистика раздачи 
Размер: 2.43 ГБ   |  Зарегистрирован: 21 июл 2015, 17:25   |   .torrent скачан: 0 раз
Сидеров: 1  [ 0 байт/сек ]     Личеров: 0  [ 0 байт/сек ]  
  

Da Vinci Learning: BBC: Джимми Дохерти в Саду Дарвина / Jimmy Doherty in Darwin's Garden [серии 1-3 из 3] (2009) SATRip

Сообщение Thistoll » 21 июл 2015, 17:25

Da Vinci Learning: BBC: Джимми Дохерти в Саду Дарвина / Jimmy Doherty in Darwin's Garden [серии 1-3 из 3] (2009) SATRip

Телекомпания: BBC, Open University Partnership
Режиссер: Мет Барретт
Жанр: Документальный, научно-познавательный

Участники: ведущий - Джимми Дохерти

Описание:
"Происхождение видов путем естественного отбора, или Сохранение благоприятных рас в борьбе за жизнь" - труд английского естествоиспытателя Чарльза Дарвина, опубликованный 24 ноября 1859 года, являющийся одним из наиболее знаменитых трудов в истории науки и основополагающим в сфере эволюционного учения. В этом научном труде Дарвин представляет длинную цепочку аргументов в пользу своей теории. Согласно ей, группы организмов, называющиеся сегодня популяциями, постепенно развиваются благодаря естественному отбору. Именно в данном труде этот процесс был впервые представлен широкой общественности.
Список серий:
01. Опасные идеи / Dangerous Ideas
Фильм рассказывает об опытах, показавшим, что, если разные виды семян замочить в соленой воде на месяц, то многие из них выживут.
02. Начинается буря / The Storm Breaks
Фильм рассказывает об опытах с растениями, которые из-за низкого содержания азота в почве приспособились питаться насекомыми.
03. О людях и обезьянах / Of Apes and Men
Вы увидите эксперимент Дарвина, показывающий, что даже такие скромные представители царства животных как дождевые черви обладают разумом.

Продолжительность: 3х ~ 00:58:00
Качество видео: SATRip

Перевод: Одноголосый закадровый, профессиональный

Видео: Xvid, 704x400, ~25.00 fps ~1800 Kbps
Аудио: AC3, 2 ch, 48kHz, 192 kbps
Код:
Код: Выделить всё
Format                         : AVI
Format/Info                    : Audio Video Interleave
File size                      : 824 MiB
Duration                       : 57mn 35s
Overall bit rate               : 2 002 Kbps
Writing application            : VirtualDubMod 1.5.10.3 | [url=http://www.virtualdub-fr.org]www.virtualdub-fr.org[/url] || (build 2550/release)
Writing library                : VirtualDubMod build 2550/release

Video
ID                             : 0
Format                         : MPEG-4 Visual
Format profile                 : Advanced [email protected]
Format settings, BVOP          : 3
Format settings, QPel          : Yes
Format settings, GMC           : 3 warppoints
Format settings, Matrix        : Default (H.263)
Codec ID                       : XVID
Codec ID/Hint                  : XviD
Duration                       : 57mn 35s
Bit rate                       : 1 800 Kbps
Width                          : 704 pixels
Height                         : 400 pixels
Display aspect ratio           : 16:9
Frame rate                     : 25.000 fps
Color space                    : YUV
Chroma subsampling             : 4:2:0
Bit depth                      : 8 bits
Scan type                      : Progressive
Compression mode               : Lossy
Bits/(Pixel*Frame)             : 0.256
Stream size                    : 741 MiB (90%)
Writing library                : XviD 1.2.1 (UTC 2008-12-04)

Audio
ID                             : 1
Format                         : AC-3
Format/Info                    : Audio Coding 3
Mode extension                 : CM (complete main)
Format settings, Endianness    : Big
Codec ID                       : 2000
Duration                       : 57mn 35s
Bit rate mode                  : Constant
Bit rate                       : 192 Kbps
Channel(s)                     : 2 channels
Channel positions              : Front: L R
Sampling rate                  : 48.0 KHz
Compression mode               : Lossy
Stream size                    : 79.1 MiB (10%)
Alignment                      : Split accross interleaves
Interleave, duration           : 40 ms (1.00 video frame)
Interleave, preload duration   : 500 ms

Скриншоты:




Время раздачи: до 23:00 к.в.
 
Не забывайте говорить Спасибо. Не уходите с раздачи!   
Торрент: Зарегистрирован [21 июл 2015, 17:25] Для скачивания .torrent
необходима регистрация
Или скачать с помощью
MediaGet
Статус:
Проверен
 
.torrent скачан: 0 раз
Хэш: 21bb273814e4b8f189a0ad7e800b904e664c6712
Размер: 2.43 ГБ (2 611 077 120 байт)
Стать Автором раздачи
 
 
Раздал: 6.67 ГБ
Скачал: 302.5 МБ
Ратио: 22.576
Сообщения: 374284
Зарегистрирован: 17 апр 2014, 11:05


  • Похожие торренты
    Ответы
    Просмотры
    Последнее сообщение

Вернуться в Da Vinci Learning

Кто сейчас на конференции

Сейчас эту тему просматривают: нет зарегистрированных пользователей и гости: 1

Ресурс не предоставляет электронные версии произведений, а занимается лишь коллекционированием и каталогизацией ссылок, присылаемых и публикуемых на форуме нашими читателями. Если вы являетесь правообладателем какого-либо представленного материала и не желаете чтобы ссылка на него находилась в нашем каталоге, свяжитесь с нами и мы незамедлительно удалим её. Файлы для обмена на трекере предоставлены пользователями сайта, и администрация не несёт ответственности за их содержание. Просьба не заливать файлы, защищенные авторскими правами, а также файлы нелегального содержания!