Лучшие песни из фильмов ссср часть 2 (отдельные сюжеты) (1938-1991) SATRip

 
 Статистика раздачи 
Размер: 699.07 МБ   |  Зарегистрирован: 18 июл 2015, 13:08   |   .torrent скачан: 1 раз
Сидеров: 1  [ 0 байт/сек ]     Личеров: 0  [ 0 байт/сек ]  
  

Лучшие песни из фильмов ссср часть 2 (отдельные сюжеты) (1938-1991) SATRip

Сообщение bagouser » 18 июл 2015, 13:08

Лучшие песни из фильмов ссср часть 2 (отдельные сюжеты) (1938-1991) SATRip

Производство: СССР
Жанр: Музыкальный

Режиссер: Режиссеры СССР
Актеры: .

Описание:
Вторая часть видеоподборки содержит песни из популярных фильмов эпохи СССР 1938-1991 г. Материал выложен в виде отдельных файлов с титрами содержащими Наименование фильма, Автора музыки, Автора текста и Исполнителя. Подборка содержит видеоматериалы автора.

Список песен-сюжетов

1. От зари до зари (Пой , гитара) - кинофильм - Песни моря
2. Ты, да я, да мы с тобой - кинофильм - Тихие тpоечники
3. Солнечный зайчик (Я мечтала о морях и кораллах) - кинофильм - Ещё раз про любовь
4. Простите пехоте (Не верьте погоде) - кинофильм - Июльский дождь
5. До свиданья, лето - кинофильм - кинофильм - Центровой из поднебесья
6. Выбирайте море - кинофильм - Капитан
7. Лестница в небо - кинофильм - Тот самый Мюнхгаузен
8. Ты погоди уходить навсегда - кинофильм - Последние каникулы
8. Солдат молоденький - кинофильм - Завтрак на траве
9. Где живёшь ты на свете (Если Вам прощаться не с кем) - кинофильм - Завтрак на траве
10. Золотая рыбка - кинофильм - Завтрак на траве
11. Кинопоходная (Кино настоящее лучше телевизора) - Волшебная сила искусства
12. Не грусти - кинофильм - Девушка с гитарой
13. Черное море мое - кинофильм - Матрос с Кометы
14. Я леплю из пластилина - кинофильм - Почти смешная история
15. Песня о тревожной молодости (Забота у нас такая) - кинофильм - По ту сторону
16. Звать любовь не надо - кинофильм - Моя любовь
17. Письмо матери - кинофильм - Калина красная
18. Губы окаянные, думы потаенные - кинофильм - Пять вечеров
19. Сережка с Малой Бронной (Москвичи) - кинофильм - Хочу верить
20. Хвастать милая не стану - кинофильм - Свадьба с приданым
21. Серега Санин - кинофильм - Нежность к ревущему зверю
22. Мечты Татьяны - кинофильм - Шла собака по роялю
23. На том далеком и туманном берегу (Детство) - кинофильм - Цирк приехал
24. Я любил одну милую - кинофильм - Стряпуха
25. Как молоды мы были - кинофильм - Моя любовь на третьем курсе
26. Расцвела сирень-черемуха в саду - кинофильм - Беспокойное хозяйство
27. Пять минут тишины - кинофильм - Колыбельная для брата
28. Песня о друге - кинофильм - Это сильнее меня
29. Какие старые слова - кинофильм - Это сильнее меня
30. У беды глаза зеленые - кинофильм - Опасные друзья
31. Ромашки спрятались - кинофильм - Моя улица
32. Пароходы - кинофильм - И снова Анискин
33. За того парня - кинофильм - Минута молчания
34. Табор, мой табор - кинофильм - Мой остров синий
35. Волки, волки не зевайте - кинофильм - Мой остров синий
36. Белый цвет, алый цвет - кинофильм - Трое вышли из леса
37. Баллада о солдате - кинофильм - В трудный час
Продолжительность: 01:59:11
Качество видео: SATRip

Видео: Xvid, S-Mpeg 4 v3; 640x480 (4/3); 610 Kbps; 30 fps; 0,066 bpp, ~.
Аудио: AAC, 2 ch, 320, CBR
Код:
Код: Выделить всё
Общее
Полное имя                               : D:\торрнадо\Лучшие песни из фильмов СССР - отделные сюжеты часть 2\Баллада о солдате кинофильм В трудный час.avi
Формат                                   : AVI
Формат/Информация                        : Audio Video Interleave
Размер файла                             : 27,1 Мбайт
Продолжительность                        : 3 м. 56 с.
Общий поток                              : 961 Кбит/сек

Видео
Идентификатор                            : 0
Формат                                   : MPEG-4 Visual
Идентификатор кодека                     : MP43
Идентификатор кодека/Информация          : Microsoft MPEG-4 v3 (pre-standard)
Идентификатор кодека/Подсказка           : Microsoft
Продолжительность                        : 3 м. 56 с.
Битрейт                                  : 630 Кбит/сек
Ширина                                   : 640 пикселей
Высота                                   : 480 пикселей
Соотношение сторон                       : 4:3
Частота кадров                           : 30,000 кадров/сек
Метод сжатия                             : С потерями
Бит/(Пиксели*Кадры)                      : 0.068
Размер потока                            : 17,7 Мбайт (66%)

Аудио
Идентификатор                            : 1
Формат                                   : MPEG Audio
Версия формата                           : Version 1
Профиль формата                          : Layer 3
Идентификатор кодека                     : 55
Идентификатор кодека/Подсказка           : MP3
Продолжительность                        : 3 м. 56 с.
Вид битрейта                             : Постоянный
Битрейт                                  : 320 Кбит/сек
Каналы                                   : 2 канала
Частота                                  : 48,0 КГц
Метод сжатия                             : С потерями
Размер потока                            : 9,02 Мбайт (33%)
Выравнивание                             : Разделение по промежуткам
Продолжительность промежутка             : 997  мс. (29,92 видеокадров)
Время предзагрузки промежутка            : 750  мс.
Библиотека кодирования                   : LAME3.97 (beta)

Общее
Полное имя                               : D:\торрнадо\Лучшие песни из фильмов СССР - отделные сюжеты часть 2\Белый цвет, алый цвет кинофильм Трое вышли из леса.avi
Формат                                   : AVI
Формат/Информация                        : Audio Video Interleave
Размер файла                             : 13,4 Мбайт
Продолжительность                        : 1 м. 54 с.
Общий поток                              : 984 Кбит/сек

Видео
Идентификатор                            : 0
Формат                                   : MPEG-4 Visual
Идентификатор кодека                     : MP43
Идентификатор кодека/Информация          : Microsoft MPEG-4 v3 (pre-standard)
Идентификатор кодека/Подсказка           : Microsoft
Продолжительность                        : 1 м. 54 с.
Битрейт                                  : 649 Кбит/сек
Ширина                                   : 640 пикселей
Высота                                   : 480 пикселей
Соотношение сторон                       : 4:3
Частота кадров                           : 30,000 кадров/сек
Метод сжатия                             : С потерями
Бит/(Пиксели*Кадры)                      : 0.070
Размер потока                            : 8,85 Мбайт (66%)

Аудио
Идентификатор                            : 1
Формат                                   : MPEG Audio
Версия формата                           : Version 1
Профиль формата                          : Layer 3
Идентификатор кодека                     : 55
Идентификатор кодека/Подсказка           : MP3
Продолжительность                        : 1 м. 54 с.
Вид битрейта                             : Постоянный
Битрейт                                  : 320 Кбит/сек
Каналы                                   : 2 канала
Частота                                  : 48,0 КГц
Метод сжатия                             : С потерями
Размер потока                            : 4,36 Мбайт (33%)
Выравнивание                             : Разделение по промежуткам
Продолжительность промежутка             : 994  мс. (29,82 видеокадров)
Время предзагрузки промежутка            : 750  мс.
Библиотека кодирования                   : LAME3.97 (beta)

Общее
Полное имя                               : D:\торрнадо\Лучшие песни из фильмов СССР - отделные сюжеты часть 2\Волки, волки не зевайте кинофильм Мой остров синий.avi
Формат                                   : AVI
Формат/Информация                        : Audio Video Interleave
Размер файла                             : 14,0 Мбайт
Продолжительность                        : 1 м. 59 с.
Общий поток                              : 982 Кбит/сек

Видео
Идентификатор                            : 0
Формат                                   : MPEG-4 Visual
Идентификатор кодека                     : MP43
Идентификатор кодека/Информация          : Microsoft MPEG-4 v3 (pre-standard)
Идентификатор кодека/Подсказка           : Microsoft
Продолжительность                        : 1 м. 59 с.
Битрейт                                  : 647 Кбит/сек
Ширина                                   : 640 пикселей
Высота                                   : 480 пикселей
Соотношение сторон                       : 4:3
Частота кадров                           : 30,000 кадров/сек
Метод сжатия                             : С потерями
Бит/(Пиксели*Кадры)                      : 0.070
Размер потока                            : 9,22 Мбайт (66%)

Аудио
Идентификатор                            : 1
Формат                                   : MPEG Audio
Версия формата                           : Version 1
Профиль формата                          : Layer 3
Идентификатор кодека                     : 55
Идентификатор кодека/Подсказка           : MP3
Продолжительность                        : 1 м. 59 с.
Вид битрейта                             : Постоянный
Битрейт                                  : 320 Кбит/сек
Каналы                                   : 2 канала
Частота                                  : 48,0 КГц
Метод сжатия                             : С потерями
Размер потока                            : 4,56 Мбайт (33%)
Выравнивание                             : Разделение по промежуткам
Продолжительность промежутка             : 996  мс. (29,88 видеокадров)
Время предзагрузки промежутка            : 750  мс.
Библиотека кодирования                   : LAME3.97 (beta)

Общее
Полное имя                               : D:\торрнадо\Лучшие песни из фильмов СССР - отделные сюжеты часть 2\Выбирайте море кинофильм Капитан.avi
Формат                                   : AVI
Формат/Информация                        : Audio Video Interleave
Размер файла                             : 9,24 Мбайт
Продолжительность                        : 1 м. 17 с.
Общий поток                              : 1004 Кбит/сек

Видео
Идентификатор                            : 0
Формат                                   : MPEG-4 Visual
Идентификатор кодека                     : MP43
Идентификатор кодека/Информация          : Microsoft MPEG-4 v3 (pre-standard)
Идентификатор кодека/Подсказка           : Microsoft
Продолжительность                        : 1 м. 17 с.
Битрейт                                  : 664 Кбит/сек
Ширина                                   : 640 пикселей
Высота                                   : 480 пикселей
Соотношение сторон                       : 4:3
Частота кадров                           : 30,000 кадров/сек
Метод сжатия                             : С потерями
Бит/(Пиксели*Кадры)                      : 0.072
Размер потока                            : 6,12 Мбайт (66%)

Аудио
Идентификатор                            : 1
Формат                                   : MPEG Audio
Версия формата                           : Version 1
Профиль формата                          : Layer 3
Идентификатор кодека                     : 55
Идентификатор кодека/Подсказка           : MP3
Продолжительность                        : 1 м. 17 с.
Вид битрейта                             : Постоянный
Битрейт                                  : 320 Кбит/сек
Каналы                                   : 2 канала
Частота                                  : 48,0 КГц
Метод сжатия                             : С потерями
Размер потока                            : 2,95 Мбайт (32%)
Выравнивание                             : Разделение по промежуткам
Продолжительность промежутка             : 991  мс. (29,72 видеокадров)
Время предзагрузки промежутка            : 750  мс.
Библиотека кодирования                   : LAME3.97 (beta)

Общее
Полное имя                               : D:\торрнадо\Лучшие песни из фильмов СССР - отделные сюжеты часть 2\Где живёшь ты на свете  кинофильм Завтрак на траве.avi
Формат                                   : AVI
Формат/Информация                        : Audio Video Interleave
Размер файла                             : 31,5 Мбайт
Продолжительность                        : 4 м. 35 с.
Общий поток                              : 959 Кбит/сек

Видео
Идентификатор                            : 0
Формат                                   : MPEG-4 Visual
Идентификатор кодека                     : MP43
Идентификатор кодека/Информация          : Microsoft MPEG-4 v3 (pre-standard)
Идентификатор кодека/Подсказка           : Microsoft
Продолжительность                        : 4 м. 35 с.
Битрейт                                  : 628 Кбит/сек
Ширина                                   : 640 пикселей
Высота                                   : 480 пикселей
Соотношение сторон                       : 4:3
Частота кадров                           : 30,000 кадров/сек
Метод сжатия                             : С потерями
Бит/(Пиксели*Кадры)                      : 0.068
Размер потока                            : 20,6 Мбайт (65%)

Аудио
Идентификатор                            : 1
Формат                                   : MPEG Audio
Версия формата                           : Version 1
Профиль формата                          : Layer 3
Идентификатор кодека                     : 55
Идентификатор кодека/Подсказка           : MP3
Продолжительность                        : 4 м. 35 с.
Вид битрейта                             : Постоянный
Битрейт                                  : 320 Кбит/сек
Каналы                                   : 2 канала
Частота                                  : 48,0 КГц
Метод сжатия                             : С потерями
Размер потока                            : 10,5 Мбайт (33%)
Выравнивание                             : Разделение по промежуткам
Продолжительность промежутка             : 997  мс. (29,92 видеокадров)
Время предзагрузки промежутка            : 750  мс.
Библиотека кодирования                   : LAME3.97 (beta)

Общее
Полное имя                               : D:\торрнадо\Лучшие песни из фильмов СССР - отделные сюжеты часть 2\Губы окаянные, думы потаенные кинофильм Пять вечеров.avi
Формат                                   : AVI
Формат/Информация                        : Audio Video Interleave
Размер файла                             : 14,1 Мбайт
Продолжительность                        : 2 м. 0 с.
Общий поток                              : 980 Кбит/сек

Видео
Идентификатор                            : 0
Формат                                   : MPEG-4 Visual
Идентификатор кодека                     : MP43
Идентификатор кодека/Информация          : Microsoft MPEG-4 v3 (pre-standard)
Идентификатор кодека/Подсказка           : Microsoft
Продолжительность                        : 2 м. 0 с.
Битрейт                                  : 645 Кбит/сек
Ширина                                   : 640 пикселей
Высота                                   : 480 пикселей
Соотношение сторон                       : 4:3
Частота кадров                           : 30,000 кадров/сек
Метод сжатия                             : С потерями
Бит/(Пиксели*Кадры)                      : 0.070
Размер потока                            : 9,27 Мбайт (66%)

Аудио
Идентификатор                            : 1
Формат                                   : MPEG Audio
Версия формата                           : Version 1
Профиль формата                          : Layer 3
Идентификатор кодека                     : 55
Идентификатор кодека/Подсказка           : MP3
Продолжительность                        : 2 м. 0 с.
Вид битрейта                             : Постоянный
Битрейт                                  : 320 Кбит/сек
Каналы                                   : 2 канала
Частота                                  : 48,0 КГц
Метод сжатия                             : С потерями
Размер потока                            : 4,60 Мбайт (33%)
Выравнивание                             : Разделение по промежуткам
Продолжительность промежутка             : 996  мс. (29,88 видеокадров)
Время предзагрузки промежутка            : 750  мс.
Библиотека кодирования                   : LAME3.97 (beta)

Общее
Полное имя                               : D:\торрнадо\Лучшие песни из фильмов СССР - отделные сюжеты часть 2\До свиданья, лето кинофильм Центровой из поднебесья.avi
Формат                                   : AVI
Формат/Информация                        : Audio Video Interleave
Размер файла                             : 31,0 Мбайт
Продолжительность                        : 4 м. 31 с.
Общий поток                              : 958 Кбит/сек

Видео
Идентификатор                            : 0
Формат                                   : MPEG-4 Visual
Идентификатор кодека                     : MP43
Идентификатор кодека/Информация          : Microsoft MPEG-4 v3 (pre-standard)
Идентификатор кодека/Подсказка           : Microsoft
Продолжительность                        : 4 м. 31 с.
Битрейт                                  : 626 Кбит/сек
Ширина                                   : 640 пикселей
Высота                                   : 480 пикселей
Соотношение сторон                       : 4:3
Частота кадров                           : 30,000 кадров/сек
Метод сжатия                             : С потерями
Бит/(Пиксели*Кадры)                      : 0.068
Размер потока                            : 20,3 Мбайт (65%)

Аудио
Идентификатор                            : 1
Формат                                   : MPEG Audio
Версия формата                           : Version 1
Профиль формата                          : Layer 3
Идентификатор кодека                     : 55
Идентификатор кодека/Подсказка           : MP3
Продолжительность                        : 4 м. 31 с.
Вид битрейта                             : Постоянный
Битрейт                                  : 320 Кбит/сек
Каналы                                   : 2 канала
Частота                                  : 48,0 КГц
Метод сжатия                             : С потерями
Размер потока                            : 10,4 Мбайт (33%)
Выравнивание                             : Разделение по промежуткам
Продолжительность промежутка             : 998  мс. (29,93 видеокадров)
Время предзагрузки промежутка            : 750  мс.
Библиотека кодирования                   : LAME3.97 (beta)

Общее
Полное имя                               : D:\торрнадо\Лучшие песни из фильмов СССР - отделные сюжеты часть 2\За того парня кинофильм Минута молчания.avi
Формат                                   : AVI
Формат/Информация                        : Audio Video Interleave
Размер файла                             : 16,7 Мбайт
Продолжительность                        : 2 м. 23 с.
Общий поток                              : 975 Кбит/сек

Видео
Идентификатор                            : 0
Формат                                   : MPEG-4 Visual
Идентификатор кодека                     : MP43
Идентификатор кодека/Информация          : Microsoft MPEG-4 v3 (pre-standard)
Идентификатор кодека/Подсказка           : Microsoft
Продолжительность                        : 2 м. 23 с.
Битрейт                                  : 640 Кбит/сек
Ширина                                   : 640 пикселей
Высота                                   : 480 пикселей
Соотношение сторон                       : 4:3
Частота кадров                           : 30,000 кадров/сек
Метод сжатия                             : С потерями
Бит/(Пиксели*Кадры)                      : 0.069
Размер потока                            : 10,9 Мбайт (66%)

Аудио
Идентификатор                            : 1
Формат                                   : MPEG Audio
Версия формата                           : Version 1
Профиль формата                          : Layer 3
Идентификатор кодека                     : 55
Идентификатор кодека/Подсказка           : MP3
Продолжительность                        : 2 м. 23 с.
Вид битрейта                             : Постоянный
Битрейт                                  : 320 Кбит/сек
Каналы                                   : 2 канала
Частота                                  : 48,0 КГц
Метод сжатия                             : С потерями
Размер потока                            : 5,47 Мбайт (33%)
Выравнивание                             : Разделение по промежуткам
Продолжительность промежутка             : 995  мс. (29,85 видеокадров)
Время предзагрузки промежутка            : 750  мс.
Библиотека кодирования                   : LAME3.97 (beta)

Общее
Полное имя                               : D:\торрнадо\Лучшие песни из фильмов СССР - отделные сюжеты часть 2\Звать любовь не надо кинофильм Моя любовь.avi
Формат                                   : AVI
Формат/Информация                        : Audio Video Interleave
Размер файла                             : 27,7 Мбайт
Продолжительность                        : 4 м. 2 с.
Общий поток                              : 959 Кбит/сек

Видео
Идентификатор                            : 0
Формат                                   : MPEG-4 Visual
Идентификатор кодека                     : MP43
Идентификатор кодека/Информация          : Microsoft MPEG-4 v3 (pre-standard)
Идентификатор кодека/Подсказка           : Microsoft
Продолжительность                        : 4 м. 2 с.
Битрейт                                  : 627 Кбит/сек
Ширина                                   : 640 пикселей
Высота                                   : 480 пикселей
Соотношение сторон                       : 4:3
Частота кадров                           : 30,000 кадров/сек
Метод сжатия                             : С потерями
Бит/(Пиксели*Кадры)                      : 0.068
Размер потока                            : 18,1 Мбайт (65%)

Аудио
Идентификатор                            : 1
Формат                                   : MPEG Audio
Версия формата                           : Version 1
Профиль формата                          : Layer 3
Идентификатор кодека                     : 55
Идентификатор кодека/Подсказка           : MP3
Продолжительность                        : 4 м. 2 с.
Вид битрейта                             : Постоянный
Битрейт                                  : 320 Кбит/сек
Каналы                                   : 2 канала
Частота                                  : 48,0 КГц
Метод сжатия                             : С потерями
Размер потока                            : 9,24 Мбайт (33%)
Выравнивание                             : Разделение по промежуткам
Продолжительность промежутка             : 996  мс. (29,89 видеокадров)
Время предзагрузки промежутка            : 750  мс.
Библиотека кодирования                   : LAME3.97 (beta)

Общее
Полное имя                               : D:\торрнадо\Лучшие песни из фильмов СССР - отделные сюжеты часть 2\Золотая рыбка кинофильм Завтрак на траве.avi
Формат                                   : AVI
Формат/Информация                        : Audio Video Interleave
Размер файла                             : 19,6 Мбайт
Продолжительность                        : 2 м. 49 с.
Общий поток                              : 970 Кбит/сек

Видео
Идентификатор                            : 0
Формат                                   : MPEG-4 Visual
Идентификатор кодека                     : MP43
Идентификатор кодека/Информация          : Microsoft MPEG-4 v3 (pre-standard)
Идентификатор кодека/Подсказка           : Microsoft
Продолжительность                        : 2 м. 49 с.
Битрейт                                  : 636 Кбит/сек
Ширина                                   : 640 пикселей
Высота                                   : 480 пикселей
Соотношение сторон                       : 4:3
Частота кадров                           : 30,000 кадров/сек
Метод сжатия                             : С потерями
Бит/(Пиксели*Кадры)                      : 0.069
Размер потока                            : 12,9 Мбайт (66%)

Аудио
Идентификатор                            : 1
Формат                                   : MPEG Audio
Версия формата                           : Version 1
Профиль формата                          : Layer 3
Идентификатор кодека                     : 55
Идентификатор кодека/Подсказка           : MP3
Продолжительность                        : 2 м. 49 с.
Вид битрейта                             : Постоянный
Битрейт                                  : 320 Кбит/сек
Каналы                                   : 2 канала
Частота                                  : 48,0 КГц
Метод сжатия                             : С потерями
Размер потока                            : 6,47 Мбайт (33%)
Выравнивание                             : Разделение по промежуткам
Продолжительность промежутка             : 997  мс. (29,92 видеокадров)
Время предзагрузки промежутка            : 750  мс.
Библиотека кодирования                   : LAME3.97 (beta)

Общее
Полное имя                               : D:\торрнадо\Лучшие песни из фильмов СССР - отделные сюжеты часть 2\Как молоды мы были кинофильм Моя любовь на третьем курсе.avi
Формат                                   : AVI
Формат/Информация                        : Audio Video Interleave
Размер файла                             : 33,8 Мбайт
Продолжительность                        : 4 м. 58 с.
Общий поток                              : 950 Кбит/сек

Видео
Идентификатор                            : 0
Формат                                   : MPEG-4 Visual
Идентификатор кодека                     : MP43
Идентификатор кодека/Информация          : Microsoft MPEG-4 v3 (pre-standard)
Идентификатор кодека/Подсказка           : Microsoft
Продолжительность                        : 4 м. 58 с.
Битрейт                                  : 619 Кбит/сек
Ширина                                   : 640 пикселей
Высота                                   : 480 пикселей
Соотношение сторон                       : 4:3
Частота кадров                           : 30,000 кадров/сек
Метод сжатия                             : С потерями
Бит/(Пиксели*Кадры)                      : 0.067
Размер потока                            : 22,0 Мбайт (65%)

Аудио
Идентификатор                            : 1
Формат                                   : MPEG Audio
Версия формата                           : Version 1
Профиль формата                          : Layer 3
Идентификатор кодека                     : 55
Идентификатор кодека/Подсказка           : MP3
Продолжительность                        : 4 м. 58 с.
Вид битрейта                             : Постоянный
Битрейт                                  : 320 Кбит/сек
Каналы                                   : 2 канала
Частота                                  : 48,0 КГц
Метод сжатия                             : С потерями
Размер потока                            : 11,4 Мбайт (34%)
Выравнивание                             : Разделение по промежуткам
Продолжительность промежутка             : 998  мс. (29,95 видеокадров)
Время предзагрузки промежутка            : 750  мс.
Библиотека кодирования                   : LAME3.97 (beta)

Общее
Полное имя                               : D:\торрнадо\Лучшие песни из фильмов СССР - отделные сюжеты часть 2\Какие старые слова фильм Это сильнее меня.avi
Формат                                   : AVI
Формат/Информация                        : Audio Video Interleave
Размер файла                             : 21,4 Мбайт
Продолжительность                        : 3 м. 6 с.
Общий поток                              : 966 Кбит/сек

Видео
Идентификатор                            : 0
Формат                                   : MPEG-4 Visual
Идентификатор кодека                     : MP43
Идентификатор кодека/Информация          : Microsoft MPEG-4 v3 (pre-standard)
Идентификатор кодека/Подсказка           : Microsoft
Продолжительность                        : 3 м. 6 с.
Битрейт                                  : 633 Кбит/сек
Ширина                                   : 640 пикселей
Высота                                   : 480 пикселей
Соотношение сторон                       : 4:3
Частота кадров                           : 30,000 кадров/сек
Метод сжатия                             : С потерями
Бит/(Пиксели*Кадры)                      : 0.069
Размер потока                            : 14,1 Мбайт (66%)

Аудио
Идентификатор                            : 1
Формат                                   : MPEG Audio
Версия формата                           : Version 1
Профиль формата                          : Layer 3
Идентификатор кодека                     : 55
Идентификатор кодека/Подсказка           : MP3
Продолжительность                        : 3 м. 6 с.
Вид битрейта                             : Постоянный
Битрейт                                  : 320 Кбит/сек
Каналы                                   : 2 канала
Частота                                  : 48,0 КГц
Метод сжатия                             : С потерями
Размер потока                            : 7,10 Мбайт (33%)
Выравнивание                             : Разделение по промежуткам
Продолжительность промежутка             : 996  мс. (29,87 видеокадров)
Время предзагрузки промежутка            : 750  мс.
Библиотека кодирования                   : LAME3.97 (beta)

Общее
Полное имя                               : D:\торрнадо\Лучшие песни из фильмов СССР - отделные сюжеты часть 2\Лестница в небо кинофильм Тот самый Мюнхгаузен.avi
Формат                                   : AVI
Формат/Информация                        : Audio Video Interleave
Размер файла                             : 20,1 Мбайт
Продолжительность                        : 3 м. 6 с.
Общий поток                              : 905 Кбит/сек

Видео
Идентификатор                            : 0
Формат                                   : MPEG-4 Visual
Идентификатор кодека                     : MP43
Идентификатор кодека/Информация          : Microsoft MPEG-4 v3 (pre-standard)
Идентификатор кодека/Подсказка           : Microsoft
Продолжительность                        : 3 м. 6 с.
Битрейт                                  : 572 Кбит/сек
Ширина                                   : 640 пикселей
Высота                                   : 480 пикселей
Соотношение сторон                       : 4:3
Частота кадров                           : 30,000 кадров/сек
Метод сжатия                             : С потерями
Бит/(Пиксели*Кадры)                      : 0.062
Размер потока                            : 12,7 Мбайт (63%)

Аудио
Идентификатор                            : 1
Формат                                   : MPEG Audio
Версия формата                           : Version 1
Профиль формата                          : Layer 3
Идентификатор кодека                     : 55
Идентификатор кодека/Подсказка           : MP3
Продолжительность                        : 3 м. 6 с.
Вид битрейта                             : Постоянный
Битрейт                                  : 320 Кбит/сек
Каналы                                   : 2 канала
Частота                                  : 48,0 КГц
Метод сжатия                             : С потерями
Размер потока                            : 7,10 Мбайт (35%)
Выравнивание                             : Разделение по промежуткам
Продолжительность промежутка             : 996  мс. (29,87 видеокадров)
Время предзагрузки промежутка            : 750  мс.
Библиотека кодирования                   : LAME3.97 (beta)

Общее
Полное имя                               : D:\торрнадо\Лучшие песни из фильмов СССР - отделные сюжеты часть 2\Лучшие песни из фильмов СССР - отделные сюжеты часть 2.torrent
Размер файла                             : 18,7 Кбайт

Общее
Полное имя                               : D:\торрнадо\Лучшие песни из фильмов СССР - отделные сюжеты часть 2\Мечты Татьяны кинофильм Шла собака по роялю.avi
Формат                                   : AVI
Формат/Информация                        : Audio Video Interleave
Размер файла                             : 18,7 Мбайт
Продолжительность                        : 2 м. 42 с.
Общий поток                              : 966 Кбит/сек

Видео
Идентификатор                            : 0
Формат                                   : MPEG-4 Visual
Идентификатор кодека                     : MP43
Идентификатор кодека/Информация          : Microsoft MPEG-4 v3 (pre-standard)
Идентификатор кодека/Подсказка           : Microsoft
Продолжительность                        : 2 м. 42 с.
Битрейт                                  : 632 Кбит/сек
Ширина                                   : 640 пикселей
Высота                                   : 480 пикселей
Соотношение сторон                       : 4:3
Частота кадров                           : 30,000 кадров/сек
Метод сжатия                             : С потерями
Бит/(Пиксели*Кадры)                      : 0.069
Размер потока                            : 12,2 Мбайт (65%)

Аудио
Идентификатор                            : 1
Формат                                   : MPEG Audio
Версия формата                           : Version 1
Профиль формата                          : Layer 3
Идентификатор кодека                     : 55
Идентификатор кодека/Подсказка           : MP3
Продолжительность                        : 2 м. 42 с.
Вид битрейта                             : Постоянный
Битрейт                                  : 320 Кбит/сек
Каналы                                   : 2 канала
Частота                                  : 48,0 КГц
Метод сжатия                             : С потерями
Размер потока                            : 6,19 Мбайт (33%)
Выравнивание                             : Разделение по промежуткам
Продолжительность промежутка             : 996  мс. (29,88 видеокадров)
Время предзагрузки промежутка            : 750  мс.
Библиотека кодирования                   : LAME3.97 (beta)

Общее
Полное имя                               : D:\торрнадо\Лучшие песни из фильмов СССР - отделные сюжеты часть 2\На том далеком и туманном берегу (Детство) кинофильм Цирк приехал.avi
Формат                                   : AVI
Формат/Информация                        : Audio Video Interleave
Размер файла                             : 17,3 Мбайт
Продолжительность                        : 2 м. 34 с.
Общий поток                              : 938 Кбит/сек

Видео
Идентификатор                            : 0
Формат                                   : MPEG-4 Visual
Идентификатор кодека                     : MP43
Идентификатор кодека/Информация          : Microsoft MPEG-4 v3 (pre-standard)
Идентификатор кодека/Подсказка           : Microsoft
Продолжительность                        : 2 м. 34 с.
Битрейт                                  : 604 Кбит/сек
Ширина                                   : 640 пикселей
Высота                                   : 480 пикселей
Соотношение сторон                       : 4:3
Частота кадров                           : 30,000 кадров/сек
Метод сжатия                             : С потерями
Бит/(Пиксели*Кадры)                      : 0.066
Размер потока                            : 11,1 Мбайт (64%)

Аудио
Идентификатор                            : 1
Формат                                   : MPEG Audio
Версия формата                           : Version 1
Профиль формата                          : Layer 3
Идентификатор кодека                     : 55
Идентификатор кодека/Подсказка           : MP3
Продолжительность                        : 2 м. 34 с.
Вид битрейта                             : Постоянный
Битрейт                                  : 320 Кбит/сек
Каналы                                   : 2 канала
Частота                                  : 48,0 КГц
Метод сжатия                             : С потерями
Размер потока                            : 5,90 Мбайт (34%)
Выравнивание                             : Разделение по промежуткам
Продолжительность промежутка             : 998  мс. (29,94 видеокадров)
Время предзагрузки промежутка            : 750  мс.
Библиотека кодирования                   : LAME3.97 (beta)

Общее
Полное имя                               : D:\торрнадо\Лучшие песни из фильмов СССР - отделные сюжеты часть 2\Не грусти кинофильм Девушка с гитарой.avi
Формат                                   : AVI
Формат/Информация                        : Audio Video Interleave
Размер файла                             : 15,1 Мбайт
Продолжительность                        : 2 м. 9 с.
Общий поток                              : 976 Кбит/сек

Видео
Идентификатор                            : 0
Формат                                   : MPEG-4 Visual
Идентификатор кодека                     : MP43
Идентификатор кодека/Информация          : Microsoft MPEG-4 v3 (pre-standard)
Идентификатор кодека/Подсказка           : Microsoft
Продолжительность                        : 2 м. 9 с.
Битрейт                                  : 642 Кбит/сек
Ширина                                   : 640 пикселей
Высота                                   : 480 пикселей
Соотношение сторон                       : 4:3
Частота кадров                           : 30,000 кадров/сек
Метод сжатия                             : С потерями
Бит/(Пиксели*Кадры)                      : 0.070
Размер потока                            : 9,92 Мбайт (66%)

Аудио
Идентификатор                            : 1
Формат                                   : MPEG Audio
Версия формата                           : Version 1
Профиль формата                          : Layer 3
Идентификатор кодека                     : 55
Идентификатор кодека/Подсказка           : MP3
Продолжительность                        : 2 м. 9 с.
Вид битрейта                             : Постоянный
Битрейт                                  : 320 Кбит/сек
Каналы                                   : 2 канала
Частота                                  : 48,0 КГц
Метод сжатия                             : С потерями
Размер потока                            : 4,94 Мбайт (33%)
Выравнивание                             : Разделение по промежуткам
Продолжительность промежутка             : 997  мс. (29,91 видеокадров)
Время предзагрузки промежутка            : 750  мс.
Библиотека кодирования                   : LAME3.97 (beta)

Общее
Полное имя                               : D:\торрнадо\Лучшие песни из фильмов СССР - отделные сюжеты часть 2\От зари до зари (Пой , гитара) кинофильм Песни моря.avi
Формат                                   : AVI
Формат/Информация                        : Audio Video Interleave
Размер файла                             : 23,5 Мбайт
Продолжительность                        : 3 м. 24 с.
Общий поток                              : 964 Кбит/сек

Видео
Идентификатор                            : 0
Формат                                   : MPEG-4 Visual
Идентификатор кодека                     : MP43
Идентификатор кодека/Информация          : Microsoft MPEG-4 v3 (pre-standard)
Идентификатор кодека/Подсказка           : Microsoft
Продолжительность                        : 3 м. 24 с.
Битрейт                                  : 632 Кбит/сек
Ширина                                   : 640 пикселей
Высота                                   : 480 пикселей
Соотношение сторон                       : 4:3
Частота кадров                           : 30,000 кадров/сек
Метод сжатия                             : С потерями
Бит/(Пиксели*Кадры)                      : 0.069
Размер потока                            : 15,4 Мбайт (66%)

Аудио
Идентификатор                            : 1
Формат                                   : MPEG Audio
Версия формата                           : Version 1
Профиль формата                          : Layer 3
Идентификатор кодека                     : 55
Идентификатор кодека/Подсказка           : MP3
Продолжительность                        : 3 м. 24 с.
Вид битрейта                             : Постоянный
Битрейт                                  : 320 Кбит/сек
Каналы                                   : 2 канала
Частота                                  : 48,0 КГц
Метод сжатия                             : С потерями
Размер потока                            : 7,80 Мбайт (33%)
Выравнивание                             : Разделение по промежуткам
Продолжительность промежутка             : 997  мс. (29,91 видеокадров)
Время предзагрузки промежутка            : 750  мс.
Библиотека кодирования                   : LAME3.97 (beta)

Общее
Полное имя                               : D:\торрнадо\Лучшие песни из фильмов СССР - отделные сюжеты часть 2\Пароходы кинофильм И снова Анискин.avi
Формат                                   : AVI
Формат/Информация                        : Audio Video Interleave
Размер файла                             : 18,7 Мбайт
Продолжительность                        : 2 м. 42 с.
Общий поток                              : 970 Кбит/сек

Видео
Идентификатор                            : 0
Формат                                   : MPEG-4 Visual
Идентификатор кодека                     : MP43
Идентификатор кодека/Информация          : Microsoft MPEG-4 v3 (pre-standard)
Идентификатор кодека/Подсказка           : Microsoft
Продолжительность                        : 2 м. 42 с.
Битрейт                                  : 636 Кбит/сек
Ширина                                   : 640 пикселей
Высота                                   : 480 пикселей
Соотношение сторон                       : 4:3
Частота кадров                           : 30,000 кадров/сек
Метод сжатия                             : С потерями
Бит/(Пиксели*Кадры)                      : 0.069
Размер потока                            : 12,3 Мбайт (66%)

Аудио
Идентификатор                            : 1
Формат                                   : MPEG Audio
Версия формата                           : Version 1
Профиль формата                          : Layer 3
Идентификатор кодека                     : 55
Идентификатор кодека/Подсказка           : MP3
Продолжительность                        : 2 м. 42 с.
Вид битрейта                             : Постоянный
Битрейт                                  : 320 Кбит/сек
Каналы                                   : 2 канала
Частота                                  : 48,0 КГц
Метод сжатия                             : С потерями
Размер потока                            : 6,18 Мбайт (33%)
Выравнивание                             : Разделение по промежуткам
Продолжительность промежутка             : 994  мс. (29,83 видеокадров)
Время предзагрузки промежутка            : 750  мс.
Библиотека кодирования                   : LAME3.97 (beta)

Общее
Полное имя                               : D:\торрнадо\Лучшие песни из фильмов СССР - отделные сюжеты часть 2\Песня о друге кинофильм Это сильнее меня.avi
Формат                                   : AVI
Формат/Информация                        : Audio Video Interleave
Размер файла                             : 14,9 Мбайт
Продолжительность                        : 2 м. 8 с.
Общий поток                              : 978 Кбит/сек

Видео
Идентификатор                            : 0
Формат                                   : MPEG-4 Visual
Идентификатор кодека                     : MP43
Идентификатор кодека/Информация          : Microsoft MPEG-4 v3 (pre-standard)
Идентификатор кодека/Подсказка           : Microsoft
Продолжительность                        : 2 м. 8 с.
Битрейт                                  : 644 Кбит/сек
Ширина                                   : 640 пикселей
Высота                                   : 480 пикселей
Соотношение сторон                       : 4:3
Частота кадров                           : 30,000 кадров/сек
Метод сжатия                             : С потерями
Бит/(Пиксели*Кадры)                      : 0.070
Размер потока                            : 9,83 Мбайт (66%)

Аудио
Идентификатор                            : 1
Формат                                   : MPEG Audio
Версия формата                           : Version 1
Профиль формата                          : Layer 3
Идентификатор кодека                     : 55
Идентификатор кодека/Подсказка           : MP3
Продолжительность                        : 2 м. 8 с.
Вид битрейта                             : Постоянный
Битрейт                                  : 320 Кбит/сек
Каналы                                   : 2 канала
Частота                                  : 48,0 КГц
Метод сжатия                             : С потерями
Размер потока                            : 4,89 Мбайт (33%)
Выравнивание                             : Разделение по промежуткам
Продолжительность промежутка             : 993  мс. (29,78 видеокадров)
Время предзагрузки промежутка            : 750  мс.
Библиотека кодирования                   : LAME3.97 (beta)

Общее
Полное имя                               : D:\торрнадо\Лучшие песни из фильмов СССР - отделные сюжеты часть 2\Песня о тревожной молодости кинофильм По ту сторону.avi
Формат                                   : AVI
Формат/Информация                        : Audio Video Interleave
Размер файла                             : 24,4 Мбайт
Продолжительность                        : 3 м. 33 с.
Общий поток                              : 963 Кбит/сек

Видео
Идентификатор                            : 0
Формат                                   : MPEG-4 Visual
Идентификатор кодека                     : MP43
Идентификатор кодека/Информация          : Microsoft MPEG-4 v3 (pre-standard)
Идентификатор кодека/Подсказка           : Microsoft
Продолжительность                        : 3 м. 33 с.
Битрейт                                  : 630 Кбит/сек
Ширина                                   : 640 пикселей
Высота                                   : 480 пикселей
Соотношение сторон                       : 4:3
Частота кадров                           : 30,000 кадров/сек
Метод сжатия                             : С потерями
Бит/(Пиксели*Кадры)                      : 0.068
Размер потока                            : 16,0 Мбайт (65%)

Аудио
Идентификатор                            : 1
Формат                                   : MPEG Audio
Версия формата                           : Version 1
Профиль формата                          : Layer 3
Идентификатор кодека                     : 55
Идентификатор кодека/Подсказка           : MP3
Продолжительность                        : 3 м. 33 с.
Вид битрейта                             : Постоянный
Битрейт                                  : 320 Кбит/сек
Каналы                                   : 2 канала
Частота                                  : 48,0 КГц
Метод сжатия                             : С потерями
Размер потока                            : 8,13 Мбайт (33%)
Выравнивание                             : Разделение по промежуткам
Продолжительность промежутка             : 995  мс. (29,86 видеокадров)
Время предзагрузки промежутка            : 750  мс.
Библиотека кодирования                   : LAME3.97 (beta)

Общее
Полное имя                               : D:\торрнадо\Лучшие песни из фильмов СССР - отделные сюжеты часть 2\Письмо матери - Калина красная.avi
Формат                                   : AVI
Формат/Информация                        : Audio Video Interleave
Размер файла                             : 13,8 Мбайт
Продолжительность                        : 1 м. 54 с.
Общий поток                              : 1011 Кбит/сек

Видео
Идентификатор                            : 0
Формат                                   : MPEG-4 Visual
Идентификатор кодека                     : MP43
Идентификатор кодека/Информация          : Microsoft MPEG-4 v3 (pre-standard)
Идентификатор кодека/Подсказка           : Microsoft
Продолжительность                        : 1 м. 54 с.
Битрейт                                  : 676 Кбит/сек
Ширина                                   : 640 пикселей
Высота                                   : 480 пикселей
Соотношение сторон                       : 4:3
Частота кадров                           : 30,000 кадров/сек
Метод сжатия                             : С потерями
Бит/(Пиксели*Кадры)                      : 0.073
Размер потока                            : 9,21 Мбайт (67%)

Аудио
Идентификатор                            : 1
Формат                                   : MPEG Audio
Версия формата                           : Version 1
Профиль формата                          : Layer 3
Идентификатор кодека                     : 55
Идентификатор кодека/Подсказка           : MP3
Продолжительность                        : 1 м. 54 с.
Вид битрейта                             : Постоянный
Битрейт                                  : 320 Кбит/сек
Каналы                                   : 2 канала
Частота                                  : 48,0 КГц
Метод сжатия                             : С потерями
Размер потока                            : 4,36 Мбайт (32%)
Выравнивание                             : Разделение по промежуткам
Продолжительность промежутка             : 994  мс. (29,82 видеокадров)
Время предзагрузки промежутка            : 750  мс.
Библиотека кодирования                   : LAME3.97 (beta)

Общее
Полное имя                               : D:\торрнадо\Лучшие песни из фильмов СССР - отделные сюжеты часть 2\Простите пехоте (Не верьте погоде) кинофильм Июльский дождь.avi
Формат                                   : AVI
Формат/Информация                        : Audio Video Interleave
Размер файла                             : 10,7 Мбайт
Продолжительность                        : 1 м. 30 с.
Общий поток                              : 996 Кбит/сек

Видео
Идентификатор                            : 0
Формат                                   : MPEG-4 Visual
Идентификатор кодека                     : MP43
Идентификатор кодека/Информация          : Microsoft MPEG-4 v3 (pre-standard)
Идентификатор кодека/Подсказка           : Microsoft
Продолжительность                        : 1 м. 30 с.
Битрейт                                  : 658 Кбит/сек
Ширина                                   : 640 пикселей
Высота                                   : 480 пикселей
Соотношение сторон                       : 4:3
Частота кадров                           : 30,000 кадров/сек
Метод сжатия                             : С потерями
Бит/(Пиксели*Кадры)                      : 0.071
Размер потока                            : 7,09 Мбайт (66%)

Аудио
Идентификатор                            : 1
Формат                                   : MPEG Audio
Версия формата                           : Version 1
Профиль формата                          : Layer 3
Идентификатор кодека                     : 55
Идентификатор кодека/Подсказка           : MP3
Продолжительность                        : 1 м. 30 с.
Вид битрейта                             : Постоянный
Битрейт                                  : 320 Кбит/сек
Каналы                                   : 2 канала
Частота                                  : 48,0 КГц
Метод сжатия                             : С потерями
Размер потока                            : 3,45 Мбайт (32%)
Выравнивание                             : Разделение по промежуткам
Продолжительность промежутка             : 993  мс. (29,79 видеокадров)
Время предзагрузки промежутка            : 750  мс.
Библиотека кодирования                   : LAME3.97 (beta)

Общее
Полное имя                               : D:\торрнадо\Лучшие песни из фильмов СССР - отделные сюжеты часть 2\Пять минут тишины кинофильм Колыбельная для брата.avi
Формат                                   : AVI
Формат/Информация                        : Audio Video Interleave
Размер файла                             : 12,0 Мбайт
Продолжительность                        : 1 м. 41 с.
Общий поток                              : 987 Кбит/сек

Видео
Идентификатор                            : 0
Формат                                   : MPEG-4 Visual
Идентификатор кодека                     : MP43
Идентификатор кодека/Информация          : Microsoft MPEG-4 v3 (pre-standard)
Идентификатор кодека/Подсказка           : Microsoft
Продолжительность                        : 1 м. 41 с.
Битрейт                                  : 651 Кбит/сек
Ширина                                   : 640 пикселей
Высота                                   : 480 пикселей
Соотношение сторон                       : 4:3
Частота кадров                           : 30,000 кадров/сек
Метод сжатия                             : С потерями
Бит/(Пиксели*Кадры)                      : 0.071
Размер потока                            : 7,90 Мбайт (66%)

Аудио
Идентификатор                            : 1
Формат                                   : MPEG Audio
Версия формата                           : Version 1
Профиль формата                          : Layer 3
Идентификатор кодека                     : 55
Идентификатор кодека/Подсказка           : MP3
Продолжительность                        : 1 м. 41 с.
Вид битрейта                             : Постоянный
Битрейт                                  : 320 Кбит/сек
Каналы                                   : 2 канала
Частота                                  : 48,0 КГц
Метод сжатия                             : С потерями
Размер потока                            : 3,89 Мбайт (32%)
Выравнивание                             : Разделение по промежуткам
Продолжительность промежутка             : 989  мс. (29,68 видеокадров)
Время предзагрузки промежутка            : 750  мс.
Библиотека кодирования                   : LAME3.97 (beta)

Общее
Полное имя                               : D:\торрнадо\Лучшие песни из фильмов СССР - отделные сюжеты часть 2\Расцвела сирень-черемуха в саду кинофильм Беспокойное хозяйство.avi
Формат                                   : AVI
Формат/Информация                        : Audio Video Interleave
Размер файла                             : 10,3 Мбайт
Продолжительность                        : 1 м. 26 с.
Общий поток                              : 1000 Кбит/сек

Видео
Идентификатор                            : 0
Формат                                   : MPEG-4 Visual
Идентификатор кодека                     : MP43
Идентификатор кодека/Информация          : Microsoft MPEG-4 v3 (pre-standard)
Идентификатор кодека/Подсказка           : Microsoft
Продолжительность                        : 1 м. 26 с.
Битрейт                                  : 662 Кбит/сек
Ширина                                   : 640 пикселей
Высота                                   : 480 пикселей
Соотношение сторон                       : 4:3
Частота кадров                           : 30,000 кадров/сек
Метод сжатия                             : С потерями
Бит/(Пиксели*Кадры)                      : 0.072
Размер потока                            : 6,84 Мбайт (66%)

Аудио
Идентификатор                            : 1
Формат                                   : MPEG Audio
Версия формата                           : Version 1
Профиль формата                          : Layer 3
Идентификатор кодека                     : 55
Идентификатор кодека/Подсказка           : MP3
Продолжительность                        : 1 м. 26 с.
Вид битрейта                             : Постоянный
Битрейт                                  : 320 Кбит/сек
Каналы                                   : 2 канала
Частота                                  : 48,0 КГц
Метод сжатия                             : С потерями
Размер потока                            : 3,31 Мбайт (32%)
Выравнивание                             : Разделение по промежуткам
Продолжительность промежутка             : 996  мс. (29,89 видеокадров)
Время предзагрузки промежутка            : 750  мс.
Библиотека кодирования                   : LAME3.97 (beta)

Общее
Полное имя                               : D:\торрнадо\Лучшие песни из фильмов СССР - отделные сюжеты часть 2\Ромашки спрятались кинофильм Моя улица.avi
Формат                                   : AVI
Формат/Информация                        : Audio Video Interleave
Размер файла                             : 17,5 Мбайт
Продолжительность                        : 2 м. 31 с.
Общий поток                              : 973 Кбит/сек

Видео
Идентификатор                            : 0
Формат                                   : MPEG-4 Visual
Идентификатор кодека                     : MP43
Идентификатор кодека/Информация          : Microsoft MPEG-4 v3 (pre-standard)
Идентификатор кодека/Подсказка           : Microsoft
Продолжительность                        : 2 м. 31 с.
Битрейт                                  : 638 Кбит/сек
Ширина                                   : 640 пикселей
Высота                                   : 480 пикселей
Соотношение сторон                       : 4:3
Частота кадров                           : 30,000 кадров/сек
Метод сжатия                             : С потерями
Бит/(Пиксели*Кадры)                      : 0.069
Размер потока                            : 11,5 Мбайт (66%)

Аудио
Идентификатор                            : 1
Формат                                   : MPEG Audio
Версия формата                           : Version 1
Профиль формата                          : Layer 3
Идентификатор кодека                     : 55
Идентификатор кодека/Подсказка           : MP3
Продолжительность                        : 2 м. 31 с.
Вид битрейта                             : Постоянный
Битрейт                                  : 320 Кбит/сек
Каналы                                   : 2 канала
Частота                                  : 48,0 КГц
Метод сжатия                             : С потерями
Размер потока                            : 5,77 Мбайт (33%)
Выравнивание                             : Разделение по промежуткам
Продолжительность промежутка             : 995  мс. (29,86 видеокадров)
Время предзагрузки промежутка            : 750  мс.
Библиотека кодирования                   : LAME3.97 (beta)

Общее
Полное имя                               : D:\торрнадо\Лучшие песни из фильмов СССР - отделные сюжеты часть 2\Серега Санин кинофильм Нежность к ревущему зверю.avi
Формат                                   : AVI
Формат/Информация                        : Audio Video Interleave
Размер файла                             : 17,1 Мбайт
Продолжительность                        : 2 м. 27 с.
Общий поток                              : 974 Кбит/сек

Видео
Идентификатор                            : 0
Формат                                   : MPEG-4 Visual
Идентификатор кодека                     : MP43
Идентификатор кодека/Информация          : Microsoft MPEG-4 v3 (pre-standard)
Идентификатор кодека/Подсказка           : Microsoft
Продолжительность                        : 2 м. 27 с.
Битрейт                                  : 639 Кбит/сек
Ширина                                   : 640 пикселей
Высота                                   : 480 пикселей
Соотношение сторон                       : 4:3
Частота кадров                           : 30,000 кадров/сек
Метод сжатия                             : С потерями
Бит/(Пиксели*Кадры)                      : 0.069
Размер потока                            : 11,2 Мбайт (66%)

Аудио
Идентификатор                            : 1
Формат                                   : MPEG Audio
Версия формата                           : Version 1
Профиль формата                          : Layer 3
Идентификатор кодека                     : 55
Идентификатор кодека/Подсказка           : MP3
Продолжительность                        : 2 м. 27 с.
Вид битрейта                             : Постоянный
Битрейт                                  : 320 Кбит/сек
Каналы                                   : 2 канала
Частота                                  : 48,0 КГц
Метод сжатия                             : С потерями
Размер потока                            : 5,61 Мбайт (33%)
Выравнивание                             : Разделение по промежуткам
Продолжительность промежутка             : 994  мс. (29,83 видеокадров)
Время предзагрузки промежутка            : 750  мс.
Библиотека кодирования                   : LAME3.97 (beta)

Общее
Полное имя                               : D:\торрнадо\Лучшие песни из фильмов СССР - отделные сюжеты часть 2\Сережка с Малой Бронной (Москвичи) кинофильм Хочу верить.avi
Формат                                   : AVI
Формат/Информация                        : Audio Video Interleave
Размер файла                             : 15,0 Мбайт
Продолжительность                        : 2 м. 9 с.
Общий поток                              : 971 Кбит/сек

Видео
Идентификатор                            : 0
Формат                                   : MPEG-4 Visual
Идентификатор кодека                     : MP43
Идентификатор кодека/Информация          : Microsoft MPEG-4 v3 (pre-standard)
Идентификатор кодека/Подсказка           : Microsoft
Продолжительность                        : 2 м. 9 с.
Битрейт                                  : 637 Кбит/сек
Ширина                                   : 640 пикселей
Высота                                   : 480 пикселей
Соотношение сторон                       : 4:3
Частота кадров                           : 30,000 кадров/сек
Метод сжатия                             : С потерями
Бит/(Пиксели*Кадры)                      : 0.069
Размер потока                            : 9,87 Мбайт (66%)

Аудио
Идентификатор                            : 1
Формат                                   : MPEG Audio
Версия формата                           : Version 1
Профиль формата                          : Layer 3
Идентификатор кодека                     : 55
Идентификатор кодека/Подсказка           : MP3
Продолжительность                        : 2 м. 9 с.
Вид битрейта                             : Постоянный
Битрейт                                  : 320 Кбит/сек
Каналы                                   : 2 канала
Частота                                  : 48,0 КГц
Метод сжатия                             : С потерями
Размер потока                            : 4,96 Мбайт (33%)
Выравнивание                             : Разделение по промежуткам
Продолжительность промежутка             : 992  мс. (29,76 видеокадров)
Время предзагрузки промежутка            : 750  мс.
Библиотека кодирования                   : LAME3.97 (beta)

Общее
Полное имя                               : D:\торрнадо\Лучшие песни из фильмов СССР - отделные сюжеты часть 2\Солдат молоденький кинофильм Завтрак на траве.avi
Формат                                   : AVI
Формат/Информация                        : Audio Video Interleave
Размер файла                             : 17,2 Мбайт
Продолжительность                        : 2 м. 28 с.
Общий поток                              : 973 Кбит/сек

Видео
Идентификатор                            : 0
Формат                                   : MPEG-4 Visual
Идентификатор кодека                     : MP43
Идентификатор кодека/Информация          : Microsoft MPEG-4 v3 (pre-standard)
Идентификатор кодека/Подсказка           : Microsoft
Продолжительность                        : 2 м. 28 с.
Битрейт                                  : 638 Кбит/сек
Ширина                                   : 640 пикселей
Высота                                   : 480 пикселей
Соотношение сторон                       : 4:3
Частота кадров                           : 30,000 кадров/сек
Метод сжатия                             : С потерями
Бит/(Пиксели*Кадры)                      : 0.069
Размер потока                            : 11,3 Мбайт (66%)

Аудио
Идентификатор                            : 1
Формат                                   : MPEG Audio
Версия формата                           : Version 1
Профиль формата                          : Layer 3
Идентификатор кодека                     : 55
Идентификатор кодека/Подсказка           : MP3
Продолжительность                        : 2 м. 28 с.
Вид битрейта                             : Постоянный
Битрейт                                  : 320 Кбит/сек
Каналы                                   : 2 канала
Частота                                  : 48,0 КГц
Метод сжатия                             : С потерями
Размер потока                            : 5,66 Мбайт (33%)
Выравнивание                             : Разделение по промежуткам
Продолжительность промежутка             : 996  мс. (29,87 видеокадров)
Время предзагрузки промежутка            : 750  мс.
Библиотека кодирования                   : LAME3.97 (beta)

Общее
Полное имя                               : D:\торрнадо\Лучшие песни из фильмов СССР - отделные сюжеты часть 2\Солнечный зайчик (Я мечтала о морях и кораллах) кинофильм Ещё раз про л.avi
Формат                                   : AVI
Формат/Информация                        : Audio Video Interleave
Размер файла                             : 15,4 Мбайт
Продолжительность                        : 2 м. 14 с.
Общий поток                              : 965 Кбит/сек

Видео
Идентификатор                            : 0
Формат                                   : MPEG-4 Visual
Идентификатор кодека                     : MP43
Идентификатор кодека/Информация          : Microsoft MPEG-4 v3 (pre-standard)
Идентификатор кодека/Подсказка           : Microsoft
Продолжительность                        : 2 м. 14 с.
Битрейт                                  : 630 Кбит/сек
Ширина                                   : 640 пикселей
Высота                                   : 480 пикселей
Соотношение сторон                       : 4:3
Частота кадров                           : 30,000 кадров/сек
Метод сжатия                             : С потерями
Бит/(Пиксели*Кадры)                      : 0.068
Размер потока                            : 10,1 Мбайт (65%)

Аудио
Идентификатор                            : 1
Формат                                   : MPEG Audio
Версия формата                           : Version 1
Профиль формата                          : Layer 3
Идентификатор кодека                     : 55
Идентификатор кодека/Подсказка           : MP3
Продолжительность                        : 2 м. 13 с.
Вид битрейта                             : Постоянный
Битрейт                                  : 320 Кбит/сек
Каналы                                   : 2 канала
Частота                                  : 48,0 КГц
Метод сжатия                             : С потерями
Размер потока                            : 5,11 Мбайт (33%)
Выравнивание                             : Разделение по промежуткам
Продолжительность промежутка             : 993  мс. (29,78 видеокадров)
Время предзагрузки промежутка            : 750  мс.
Библиотека кодирования                   : LAME3.97 (beta)

Общее
Полное имя                               : D:\торрнадо\Лучшие песни из фильмов СССР - отделные сюжеты часть 2\Табор, мой табор кинофильм Мой остров синий.avi
Формат                                   : AVI
Формат/Информация                        : Audio Video Interleave
Размер файла                             : 15,9 Мбайт
Продолжительность                        : 2 м. 16 с.
Общий поток                              : 977 Кбит/сек

Видео
Идентификатор                            : 0
Формат                                   : MPEG-4 Visual
Идентификатор кодека                     : MP43
Идентификатор кодека/Информация          : Microsoft MPEG-4 v3 (pre-standard)
Идентификатор кодека/Подсказка           : Microsoft
Продолжительность                        : 2 м. 16 с.
Битрейт                                  : 641 Кбит/сек
Ширина                                   : 640 пикселей
Высота                                   : 480 пикселей
Соотношение сторон                       : 4:3
Частота кадров                           : 30,000 кадров/сек
Метод сжатия                             : С потерями
Бит/(Пиксели*Кадры)                      : 0.070
Размер потока                            : 10,4 Мбайт (66%)

Аудио
Идентификатор                            : 1
Формат                                   : MPEG Audio
Версия формата                           : Version 1
Профиль формата                          : Layer 3
Идентификатор кодека                     : 55
Идентификатор кодека/Подсказка           : MP3
Продолжительность                        : 2 м. 16 с.
Вид битрейта                             : Постоянный
Битрейт                                  : 320 Кбит/сек
Каналы                                   : 2 канала
Частота                                  : 48,0 КГц
Метод сжатия                             : С потерями
Размер потока                            : 5,20 Мбайт (33%)
Выравнивание                             : Разделение по промежуткам
Продолжительность промежутка             : 994  мс. (29,82 видеокадров)
Время предзагрузки промежутка            : 750  мс.
Библиотека кодирования                   : LAME3.97 (beta)

Общее
Полное имя                               : D:\торрнадо\Лучшие песни из фильмов СССР - отделные сюжеты часть 2\Ты погоди уходить навсегда кинофильм Последние каникулы.avi
Формат                                   : AVI
Формат/Информация                        : Audio Video Interleave
Размер файла                             : 19,1 Мбайт
Продолжительность                        : 2 м. 44 с.
Общий поток                              : 971 Кбит/сек

Видео
Идентификатор                            : 0
Формат                                   : MPEG-4 Visual
Идентификатор кодека                     : MP43
Идентификатор кодека/Информация          : Microsoft MPEG-4 v3 (pre-standard)
Идентификатор кодека/Подсказка           : Microsoft
Продолжительность                        : 2 м. 44 с.
Битрейт                                  : 637 Кбит/сек
Ширина                                   : 640 пикселей
Высота                                   : 480 пикселей
Соотношение сторон                       : 4:3
Частота кадров                           : 30,000 кадров/сек
Метод сжатия                             : С потерями
Бит/(Пиксели*Кадры)                      : 0.069
Размер потока                            : 12,5 Мбайт (66%)

Аудио
Идентификатор                            : 1
Формат                                   : MPEG Audio
Версия формата                           : Version 1
Профиль формата                          : Layer 3
Идентификатор кодека                     : 55
Идентификатор кодека/Подсказка           : MP3
Продолжительность                        : 2 м. 44 с.
Вид битрейта                             : Постоянный
Битрейт                                  : 320 Кбит/сек
Каналы                                   : 2 канала
Частота                                  : 48,0 КГц
Метод сжатия                             : С потерями
Размер потока                            : 6,29 Мбайт (33%)
Выравнивание                             : Разделение по промежуткам
Продолжительность промежутка             : 993  мс. (29,78 видеокадров)
Время предзагрузки промежутка            : 750  мс.
Библиотека кодирования                   : LAME3.97 (beta)

Общее
Полное имя                               : D:\торрнадо\Лучшие песни из фильмов СССР - отделные сюжеты часть 2\Ты, да я, да мы с тобой кинофильм Тихие тpоечники.avi
Формат                                   : AVI
Формат/Информация                        : Audio Video Interleave
Размер файла                             : 19,4 Мбайт
Продолжительность                        : 2 м. 47 с.
Общий поток                              : 973 Кбит/сек

Видео
Идентификатор                            : 0
Формат                                   : MPEG-4 Visual
Идентификатор кодека                     : MP43
Идентификатор кодека/Информация          : Microsoft MPEG-4 v3 (pre-standard)
Идентификатор кодека/Подсказка           : Microsoft
Продолжительность                        : 2 м. 47 с.
Битрейт                                  : 639 Кбит/сек
Ширина                                   : 640 пикселей
Высота                                   : 480 пикселей
Соотношение сторон                       : 4:3
Частота кадров                           : 30,000 кадров/сек
Метод сжатия                             : С потерями
Бит/(Пиксели*Кадры)                      : 0.069
Размер потока                            : 12,8 Мбайт (66%)

Аудио
Идентификатор                            : 1
Формат                                   : MPEG Audio
Версия формата                           : Version 1
Профиль формата                          : Layer 3
Идентификатор кодека                     : 55
Идентификатор кодека/Подсказка           : MP3
Продолжительность                        : 2 м. 47 с.
Вид битрейта                             : Постоянный
Битрейт                                  : 320 Кбит/сек
Каналы                                   : 2 канала
Частота                                  : 48,0 КГц
Метод сжатия                             : С потерями
Размер потока                            : 6,39 Мбайт (33%)
Выравнивание                             : Разделение по промежуткам
Продолжительность промежутка             : 997  мс. (29,92 видеокадров)
Время предзагрузки промежутка            : 750  мс.
Библиотека кодирования                   : LAME3.97 (beta)

Общее
Полное имя                               : D:\торрнадо\Лучшие песни из фильмов СССР - отделные сюжеты часть 2\У беды глаза зеленые кинофильм Опасные друзья.avi
Формат                                   : AVI
Формат/Информация                        : Audio Video Interleave
Размер файла                             : 20,5 Мбайт
Продолжительность                        : 2 м. 57 с.
Общий поток                              : 968 Кбит/сек

Видео
Идентификатор                            : 0
Формат                                   : MPEG-4 Visual
Идентификатор кодека                     : MP43
Идентификатор кодека/Информация          : Microsoft MPEG-4 v3 (pre-standard)
Идентификатор кодека/Подсказка           : Microsoft
Продолжительность                        : 2 м. 57 с.
Битрейт                                  : 635 Кбит/сек
Ширина                                   : 640 пикселей
Высота                                   : 480 пикселей
Соотношение сторон                       : 4:3
Частота кадров                           : 30,000 кадров/сек
Метод сжатия                             : С потерями
Бит/(Пиксели*Кадры)                      : 0.069
Размер потока                            : 13,4 Мбайт (66%)

Аудио
Идентификатор                            : 1
Формат                                   : MPEG Audio
Версия формата                           : Version 1
Профиль формата                          : Layer 3
Идентификатор кодека                     : 55
Идентификатор кодека/Подсказка           : MP3
Продолжительность                        : 2 м. 57 с.
Вид битрейта                             : Постоянный
Битрейт                                  : 320 Кбит/сек
Каналы                                   : 2 канала
Частота                                  : 48,0 КГц
Метод сжатия                             : С потерями
Размер потока                            : 6,77 Мбайт (33%)
Выравнивание                             : Разделение по промежуткам
Продолжительность промежутка             : 997  мс. (29,90 видеокадров)
Время предзагрузки промежутка            : 750  мс.
Библиотека кодирования                   : LAME3.97 (beta)

Общее
Полное имя                               : D:\торрнадо\Лучшие песни из фильмов СССР - отделные сюжеты часть 2\Хвастать милая не стану кинофильм Свадьба с приданым.avi
Формат                                   : AVI
Формат/Информация                        : Audio Video Interleave
Размер файла                             : 32,2 Мбайт
Продолжительность                        : 4 м. 42 с.
Общий поток                              : 957 Кбит/сек

Видео
Идентификатор                            : 0
Формат                                   : MPEG-4 Visual
Идентификатор кодека                     : MP43
Идентификатор кодека/Информация          : Microsoft MPEG-4 v3 (pre-standard)
Идентификатор кодека/Подсказка           : Microsoft
Продолжительность                        : 4 м. 42 с.
Битрейт                                  : 626 Кбит/сек
Ширина                                   : 640 пикселей
Высота                                   : 480 пикселей
Соотношение сторон                       : 4:3
Частота кадров                           : 30,000 кадров/сек
Метод сжатия                             : С потерями
Бит/(Пиксели*Кадры)                      : 0.068
Размер потока                            : 21,1 Мбайт (65%)

Аудио
Идентификатор                            : 1
Формат                                   : MPEG Audio
Версия формата                           : Version 1
Профиль формата                          : Layer 3
Идентификатор кодека                     : 55
Идентификатор кодека/Подсказка           : MP3
Продолжительность                        : 4 м. 42 с.
Вид битрейта                             : Постоянный
Битрейт                                  : 320 Кбит/сек
Каналы                                   : 2 канала
Частота                                  : 48,0 КГц
Метод сжатия                             : С потерями
Размер потока                            : 10,8 Мбайт (33%)
Выравнивание                             : Разделение по промежуткам
Продолжительность промежутка             : 998  мс. (29,94 видеокадров)
Время предзагрузки промежутка            : 750  мс.
Библиотека кодирования                   : LAME3.97 (beta)

Общее
Полное имя                               : D:\торрнадо\Лучшие песни из фильмов СССР - отделные сюжеты часть 2\Черное море мое кинофильм Матрос с Кометы.avi
Формат                                   : AVI
Формат/Информация                        : Audio Video Interleave
Размер файла                             : 24,9 Мбайт
Продолжительность                        : 3 м. 37 с.
Общий поток                              : 962 Кбит/сек

Видео
Идентификатор                            : 0
Формат                                   : MPEG-4 Visual
Идентификатор кодека                     : MP43
Идентификатор кодека/Информация          : Microsoft MPEG-4 v3 (pre-standard)
Идентификатор кодека/Подсказка           : Microsoft
Продолжительность                        : 3 м. 37 с.
Битрейт                                  : 630 Кбит/сек
Ширина                                   : 640 пикселей
Высота                                   : 480 пикселей
Соотношение сторон                       : 4:3
Частота кадров                           : 30,000 кадров/сек
Метод сжатия                             : С потерями
Бит/(Пиксели*Кадры)                      : 0.068
Размер потока                            : 16,3 Мбайт (65%)

Аудио
Идентификатор                            : 1
Формат                                   : MPEG Audio
Версия формата                           : Version 1
Профиль формата                          : Layer 3
Идентификатор кодека                     : 55
Идентификатор кодека/Подсказка           : MP3
Продолжительность                        : 3 м. 37 с.
Вид битрейта                             : Постоянный
Битрейт                                  : 320 Кбит/сек
Каналы                                   : 2 канала
Частота                                  : 48,0 КГц
Метод сжатия                             : С потерями
Размер потока                            : 8,28 Мбайт (33%)
Выравнивание                             : Разделение по промежуткам
Продолжительность промежутка             : 996  мс. (29,87 видеокадров)
Время предзагрузки промежутка            : 750  мс.
Библиотека кодирования                   : LAME3.97 (beta)

Общее
Полное имя                               : D:\торрнадо\Лучшие песни из фильмов СССР - отделные сюжеты часть 2\Я леплю из пластилина кинофильм Почти смешная история.avi
Формат                                   : AVI
Формат/Информация                        : Audio Video Interleave
Размер файла                             : 12,2 Мбайт
Продолжительность                        : 1 м. 43 с.
Общий поток                              : 986 Кбит/сек

Видео
Идентификатор                            : 0
Формат                                   : MPEG-4 Visual
Идентификатор кодека                     : MP43
Идентификатор кодека/Информация          : Microsoft MPEG-4 v3 (pre-standard)
Идентификатор кодека/Подсказка           : Microsoft
Продолжительность                        : 1 м. 43 с.
Битрейт                                  : 650 Кбит/сек
Ширина                                   : 640 пикселей
Высота                                   : 480 пикселей
Соотношение сторон                       : 4:3
Частота кадров                           : 30,000 кадров/сек
Метод сжатия                             : С потерями
Бит/(Пиксели*Кадры)                      : 0.071
Размер потока                            : 8,01 Мбайт (66%)

Аудио
Идентификатор                            : 1
Формат                                   : MPEG Audio
Версия формата                           : Version 1
Профиль формата                          : Layer 3
Идентификатор кодека                     : 55
Идентификатор кодека/Подсказка           : MP3
Продолжительность                        : 1 м. 43 с.
Вид битрейта                             : Постоянный
Битрейт                                  : 320 Кбит/сек
Каналы                                   : 2 канала
Частота                                  : 48,0 КГц
Метод сжатия                             : С потерями
Размер потока                            : 3,94 Мбайт (32%)
Выравнивание                             : Разделение по промежуткам
Продолжительность промежутка             : 994  мс. (29,82 видеокадров)
Время предзагрузки промежутка            : 750  мс.
Библиотека кодирования                   : LAME3.97 (beta)

Общее
Полное имя                               : D:\торрнадо\Лучшие песни из фильмов СССР - отделные сюжеты часть 2\Я любил одну милую кинофильм Стряпуха.avi
Формат                                   : AVI
Формат/Информация                        : Audio Video Interleave
Размер файла                             : 13,6 Мбайт
Продолжительность                        : 1 м. 56 с.
Общий поток                              : 979 Кбит/сек

Видео
Идентификатор                            : 0
Формат                                   : MPEG-4 Visual
Идентификатор кодека                     : MP43
Идентификатор кодека/Информация          : Microsoft MPEG-4 v3 (pre-standard)
Идентификатор кодека/Подсказка           : Microsoft
Продолжительность                        : 1 м. 56 с.
Битрейт                                  : 644 Кбит/сек
Ширина                                   : 640 пикселей
Высота                                   : 480 пикселей
Соотношение сторон                       : 4:3
Частота кадров                           : 30,000 кадров/сек
Метод сжатия                             : С потерями
Бит/(Пиксели*Кадры)                      : 0.070
Размер потока                            : 8,94 Мбайт (66%)

Аудио
Идентификатор                            : 1
Формат                                   : MPEG Audio
Версия формата                           : Version 1
Профиль формата                          : Layer 3
Идентификатор кодека                     : 55
Идентификатор кодека/Подсказка           : MP3
Продолжительность                        : 1 м. 56 с.
Вид битрейта                             : Постоянный
Битрейт                                  : 320 Кбит/сек
Каналы                                   : 2 канала
Частота                                  : 48,0 КГц
Метод сжатия                             : С потерями
Размер потока                            : 4,44 Мбайт (33%)
Выравнивание                             : Разделение по промежуткам
Продолжительность промежутка             : 996  мс. (29,87 видеокадров)
Время предзагрузки промежутка            : 750  мс.
Библиотека кодирования                   : LAME3.97 (beta)

Скриншоты:



Время раздачи: 24/7
 
Не забывайте говорить Спасибо. Не уходите с раздачи!   
Торрент: Зарегистрирован [18 июл 2015, 13:08] Скачать торрент
Скачать торрент
[ Размер 19.28 КБ / Просмотров 13 ]
Статус:
Проверен
 
.torrent скачан: 1 раз
Хэш: e7a5b598ba1645d4a2bc16ff3a3e0a83cebf40a6
Размер: 699.07 МБ (733 031 422 байт)
Стать Автором раздачи
 
Аватара пользователя
 
Раздал: 3.77 ТБ
Скачал: 406.3 ГБ
Ратио: 9.496
Сообщения: 468710
Зарегистрирован: 20 янв 2011, 21:15


  • Похожие торренты
    Ответы
    Просмотры
    Последнее сообщение

Вернуться в Музыкальные клипы (транзит)

Ресурс не предоставляет электронные версии произведений, а занимается лишь коллекционированием и каталогизацией ссылок, присылаемых и публикуемых на форуме нашими читателями. Если вы являетесь правообладателем какого-либо представленного материала и не желаете чтобы ссылка на него находилась в нашем каталоге, свяжитесь с нами и мы незамедлительно удалим её. Файлы для обмена на трекере предоставлены пользователями сайта, и администрация не несёт ответственности за их содержание. Просьба не заливать файлы, защищенные авторскими правами, а также файлы нелегального содержания!
cron