Разведопрос: Александр Дюков про Степана Бандеру (2015) WEB-DL

 
 Статистика раздачи 
Размер: 592.44 МБ   |  Зарегистрирован: 15 июл 2015, 19:29   |   .torrent скачан: 0 раз
Сидеров: 1  [ 0 байт/сек ]     Личеров: 1  [ 0 байт/сек ]  
  

Разведопрос: Александр Дюков про Степана Бандеру (2015) WEB-DL

Сообщение Thelver1947 » 15 июл 2015, 19:29

Разведопрос: Александр Дюков про Степана Бандеру (2015) WEB-DL

Телекомпания: Россия
Жанр: Документальный, биография, история, беседа

Участники: Дмитрий Пучков, Александр Дюков

Описание:
Лозунг «Слава Украине! Героям Слава!», которым в своем время приветствовали друг друга члены печально известных украинских националистических организаций ОУН и УПА, снова стали модными на Украине. И если еще несколько лет назад подобное можно было услышать лишь на западе страны, где фашистские пособники Степан Бандера и Роман Шухевич давно стали «героями», (и где в их честь даже установлены памятники) то сегодня этот слоган круглыми сутками повторяется в Киеве, на так называемом «евромайдане». При этом каждый из митингующих попытается доказать вам, что Бандера – никакой не преступник, а вполне себе «герой Украины». Так кто же такой Степан Бандера? – об этом мы и поговорили с директором Фонда «Историческая память» Александром Дюковым.

Продолжительность: 01:08:38
Качество видео: WEB-DL

Видео: AVC/H.264, 1280х720, ~1060 kbps
Аудио: MP3, 1 ch, 128 kbps, CBR
Семпл: Скачать
Код:
Код: Выделить всё
Разведопрос.Александр.Дюков.про.Степана.Бандеру.2015.WEB-DL.mp4
Формат                                   : MPEG-4
Профиль формата                          : Base Media / Version 2
Идентификатор кодека                     : mp42
Размер файла                             : 592 Мбайт
Продолжительность                        : 1 ч. 8 м.
Режим общего битрейта                    : Переменный
Общий поток                              : 1207 Кбит/сек
Дата кодирования                         : UTC 2015-07-09 16:56:03
Дата пометки                             : UTC 2015-07-09 16:56:03
gsst                                     : 0
gstd                                     : 4118430
gssd                                     : BBC5DAE47MM1436777201421311
gshh                                     : r4---sn-a0jpm-a0ml.googlevideo.com

Видео
Идентификатор                            : 1
Формат                                   : AVC
Формат/Информация                        : Advanced Video Codec
Профиль формата                          :
Параметр CABAC формата                   : Да
Параметр ReFrames формата                : 1 кадр
Параметр GOP формата                     : M=1, N=60
Идентификатор кодека                     : avc1
Идентификатор кодека/Информация          : Advanced Video Coding
Продолжительность                        : 1 ч. 8 м.
Битрейт                                  : 1060 Кбит/сек
Максимальный битрейт                     : 3228 Кбит/сек
Ширина                                   : 1280 пикселей
Высота                                   : 720 пикселей
Соотношение сторон                       : 16:9
Режим частоты кадров                     : Постоянный
Частота кадров                           : 25,000 кадров/сек
Цветовое пространство                    : YUV
Субдискретизация насыщенности            : 4:2:0
Битовая глубина                          : 8 бит
Тип развёртки                            : Прогрессивная
Бит/(Пиксели*Кадры)                      : 0.046
Размер потока                            : 521 Мбайт (88%)
Дата пометки                             : UTC 2015-07-09 16:57:42

Аудио
Идентификатор                            : 2
Формат                                   : AAC
Формат/Информация                        : Advanced Audio Codec
Профиль формата                          : LC
Идентификатор кодека                     : 40
Продолжительность                        : 1 ч. 8 м.
Вид битрейта                             : Переменный
Битрейт                                  : 144 Кбит/сек
Максимальный битрейт                     : 150 Кбит/сек
Каналы                                   : 1 канал
Расположение каналов                     : Front: C
Частота                                  : 44,1 КГц
Метод сжатия                             : С потерями
Размер потока                            : 70,7 Мбайт (12%)
Заголовок                                : IsoMedia File Produced by Google, 5-11-2011
Язык                                     : English
Дата кодирования                         : UTC 2015-07-09 16:57:01
Дата пометки                             : UTC 2015-07-09 16:57:42

Скриншоты:



Время раздачи: 24/7 (круглосуточно)
 
Не забывайте говорить Спасибо. Не уходите с раздачи!   
Торрент: Зарегистрирован [15 июл 2015, 19:29] Для скачивания .torrent
необходима регистрация
Или скачать с помощью
MediaGet
Статус:
Проверен
 
.torrent скачан: 0 раз
Хэш: bc1aa46dd902ca7fdf78db8ba9a87a7f5521e406
Размер: 592.44 МБ (621 214 088 байт)
Стать Автором раздачи
 
 
Раздал: 690.52 МБ
Скачал: 0 байт
Ратио: Seed.
Сообщения: 218210
Зарегистрирован: 14 июн 2014, 21:11


  • Похожие торренты
    Ответы
    Просмотры
    Последнее сообщение

Вернуться в Видео для мобильных устройств

Ресурс не предоставляет электронные версии произведений, а занимается лишь коллекционированием и каталогизацией ссылок, присылаемых и публикуемых на форуме нашими читателями. Если вы являетесь правообладателем какого-либо представленного материала и не желаете чтобы ссылка на него находилась в нашем каталоге, свяжитесь с нами и мы незамедлительно удалим её. Файлы для обмена на трекере предоставлены пользователями сайта, и администрация не несёт ответственности за их содержание. Просьба не заливать файлы, защищенные авторскими правами, а также файлы нелегального содержания!
cron