Шесть демонов Эмили Роуз [Расширенная версия] / The Exorcism of Emily Rose [Unrated/Extended Cut] (2005) BDRip [H.264] [MP4|960x400]

 
 Статистика раздачи 
Размер: 1.98 ГБ   |  Зарегистрирован: 13 июл 2015, 18:49   |   .torrent скачан: 0 раз
Сидеров: 1  [ 0 байт/сек ]     Личеров: 0  [ 0 байт/сек ]  
  

Шесть демонов Эмили Роуз [Расширенная версия] / The Exorcism of Emily Rose [Unrated/Extended Cut] (2005) BDRip [H.264] [MP4|960x400]

Сообщение Thelver1947 » 13 июл 2015, 18:49

Шесть демонов Эмили Роуз [Расширенная версия] / The Exorcism of Emily Rose [Unrated/Extended Cut] (2005) BDRip

«What happened to Emily?»

Производство: США
Жанр: Ужасы, Триллер, Драма, Криминал

Описание:
Фильм основан на реальных событиях. В 1976 году сеанс изгнания дьявола из молодой девушки закончился ее смертью. Священнику-экзорцисту, проводившему обряд, было предъявлено обвинение в убийстве, хотя процесс был официально инициирован католической церковью.
В поиске справедливости священник изучает историю появления на земле демона, погубившего девушку, и пытается доказать в суде факт существования потусторонних сил и их способность вмешиваться в жизнь людей…

Режиссер: Скотт Дерриксон
Продюсер: Пол Харрис Бордман, Бо Флинн, Гари Лучези
Актеры: Лаура Линни, Том Уилкинсон, Кэмпбелл Скотт, Дженнифер Карпентер, Колм Фиори, Джошуа Клоуз, Кеннет Уэлш, Дункан Фрайзер, ДжейАр Борн, Мэри Бет Херт, Генри Черны, Шоре Агдашлу, Стив Арчер, Arlene Belcastro, David Berner, Мэри Блэк, Джулиан Кристофер, Аарон Дуглас, Лорена Гэйл, Джордж Гордон, Ирис Грэхэм, Тейлор Хилл, Чела Хорсдэл, Джон Иннес, Джефф Джонсон, Michael Jonsson, Кэти Китинг, Теренс Келли, Darrin Maharaj, Райан МакДональд, Marilyn Norry, Joanna Piros, Марша Режис, Бобби Стюарт, Клэй Ст. Томас, Cori Lee Urhahn, Liduina Vanderspek, Эндрю Вилер

Продолжительность: 02:01:45
Перевод: Дублированный, Оригинальный
Субтитры: Вшитые отключаемые
Язык субтитров: Русский, Английский

Формат: MP4
Качество видео: BDRip
Видеокодек: AVC/H.264
Битрейт видео: ~2000 Kbps
Размер кадра: 960x400
Аудио 1: AAC LC, 2.0, 163 Kbps - Русский (Дублированный)
Аудио 2: AAC LC, 2.0, 164 Kbps - Английский (Оригинальный)
Код:
Код: Выделить всё
General
Complete name               : D:\Kreker\Шесть демонов Эмили Роуз.2005.BDRip.Unrated.Extended Cut.NNM-Club.mp4
Format                      : MPEG-4
Format profile              : Base Media
Codec ID                    : isom
File size                   : 1.98 GiB
Duration                    : 2h 1mn
Overall bit rate mode       : Variable
Overall bit rate            : 2 332 Kbps
Encoded date                : UTC 2015-07-13 04:15:00
Tagged date                 : UTC 2015-07-13 04:15:00

Video
ID                          : 1
Format                      : AVC
Format/Info                 : Advanced Video Codec
Format profile              :
Format settings, CABAC      : Yes
Format settings, ReFrames   : 8 frames
Codec ID                    : avc1
Codec ID/Info               : Advanced Video Coding
Duration                    : 2h 1mn
Bit rate                    : 2 000 Kbps
Maximum bit rate            : 5 748 Kbps
Width                       : 960 pixels
Height                      : 400 pixels
Display aspect ratio        : 2.40:1
Frame rate mode             : Constant
Frame rate                  : 23.976 fps
Color space                 : YUV
Chroma subsampling          : 4:2:0
Bit depth                   : 8 bits
Scan type                   : Progressive
Bits/(Pixel*Frame)          : 0.217
Stream size                 : 1.70 GiB (86%)
Title                       : The Exorcism of Emily Rose [Unrated]
Writing library             : x264 core 146 r2538 121396c
Encoding settings           : cabac=1 / ref=8 / deblock=1:-2:-2 / analyse=0x3:0x133 / me=esa / subme=11 / psy=1 / psy_rd=1.05:0.05 / mixed_ref=1 / me_range=48 / chroma_me=1 / trellis=2 / 8x8dct=1 / cqm=0 / deadzone=21,11 / fast_pskip=0 / chroma_qp_offset=-3 / threads=6 / lookahead_threads=1 / sliced_threads=0 / nr=0 / decimate=1 / interlaced=0 / bluray_compat=0 / constrained_intra=0 / bframes=13 / b_pyramid=2 / b_adapt=2 / b_bias=0 / direct=3 / weightb=1 / open_gop=0 / weightp=2 / keyint=240 / keyint_min=23 / scenecut=40 / intra_refresh=0 / rc_lookahead=50 / rc=2pass / mbtree=0 / bitrate=2000 / ratetol=1.0 / qcomp=0.70 / qpmin=0 / qpmax=69 / qpstep=4 / cplxblur=20.0 / qblur=0.5 / vbv_maxrate=27500 / vbv_bufsize=35000 / nal_hrd=none / filler=0 / ip_ratio=1.40 / pb_ratio=1.30 / aq=1:1.00
Encoded date                : UTC 2015-07-13 04:15:00
Tagged date                 : UTC 2015-07-13 04:16:15
Color range                 : Limited
Transfer characteristics    : BT.709
Matrix coefficients         : BT.709

Audio #1
ID                          : 2
Format                      : AAC
Format/Info                 : Advanced Audio Codec
Format profile              : LC
Codec ID                    : 40
Duration                    : 2h 1mn
Source duration             : 2h 1mn
Bit rate mode               : Variable
Bit rate                    : 163 Kbps
Maximum bit rate            : 234 Kbps
Channel(s)                  : 2 channels
Channel positions           : Front: L R
Sampling rate               : 48.0 KHz
Compression mode            : Lossy
Stream size                 : 142 MiB (7%)
Source stream size          : 142 MiB (7%)
Title                       : DUB Blu-Ray
Language                    : Russian
Encoded date                : UTC 2015-07-12 12:49:33
Tagged date                 : UTC 2015-07-13 04:16:15

Audio #2
ID                          : 3
Format                      : AAC
Format/Info                 : Advanced Audio Codec
Format profile              : LC
Codec ID                    : 40
Duration                    : 2h 1mn
Source duration             : 2h 1mn
Bit rate mode               : Variable
Bit rate                    : 164 Kbps
Maximum bit rate            : 255 Kbps
Channel(s)                  : 2 channels
Channel positions           : Front: L R
Sampling rate               : 48.0 KHz
Compression mode            : Lossy
Stream size                 : 143 MiB (7%)
Source stream size          : 143 MiB (7%)
Title                       : Original
Language                    : English
Encoded date                : UTC 2015-07-12 13:01:17
Tagged date                 : UTC 2015-07-13 04:16:15

Text #1
ID                          : 4
Format                      : Timed Text
Codec ID                    : tx3g
Duration                    : 1h 57mn
Bit rate mode               : Variable
Bit rate                    : 114 bps
Stream size                 : 98.5 KiB (0%)
Language                    : Russian
Encoded date                : UTC 2015-07-13 04:16:15
Tagged date                 : UTC 2015-07-13 04:16:15

Text #2
ID                          : 5
Format                      : Timed Text
Codec ID                    : tx3g
Duration                    : 1h 55mn
Bit rate mode               : Variable
Bit rate                    : 71 bps
Stream size                 : 60.1 KiB (0%)
Language                    : English
Encoded date                : UTC 2015-07-13 04:16:15
Tagged date                 : UTC 2015-07-13 04:16:15
Код:
Код: Выделить всё
x264 [info]: profile High, level 4.1
x264 [info]: frame I:1440  Avg QP:12.01  size: 73443
x264 [info]: frame P:31493 Avg QP:14.09  size: 22231
x264 [info]: frame B:142221 Avg QP:15.87  size:  7172
x264 [info]: consecutive B-frames:  1.5%  0.9%  3.1%  6.3% 12.0% 58.6%  7.5%  3.5%  2.2%  0.9%  0.8%  1.2%  0.6%  1.0%
x264 [info]: mb I  I16..4: 18.6% 60.0% 21.4%
x264 [info]: mb P  I16..4:  0.7% 13.7%  1.0%  P16..4: 24.4% 34.5% 17.4%  3.8%  0.3%    skip: 4.4%
x264 [info]: mb B  I16..4:  0.1%  0.9%  0.1%  B16..8: 32.1% 25.1%  6.2%  direct: 5.5%  skip:30.0%  L0:46.6% L1:42.8% BI:10.6%
x264 [info]: 8x8 transform intra:82.3% inter:45.4%
x264 [info]: direct mvs  spatial:98.4% temporal:1.6%
x264 [info]: coded y,uvDC,uvAC intra: 92.7% 93.0% 88.2% inter: 23.7% 23.9% 12.9%
x264 [info]: i16 v,h,dc,p: 32%  9% 24% 35%
x264 [info]: i8 v,h,dc,ddl,ddr,vr,hd,vl,hu: 11%  9% 17%  9% 11% 11% 10% 11% 12%
x264 [info]: i4 v,h,dc,ddl,ddr,vr,hd,vl,hu: 12%  8% 13%  8% 14% 14% 11% 10% 10%
x264 [info]: i8c dc,h,v,p: 58% 16% 13% 13%
x264 [info]: Weighted P-Frames: Y:3.7% UV:2.3%
x264 [info]: ref P L0: 48.1%  6.3% 17.0%  9.2%  7.1%  5.4%  4.4%  2.3%  0.2%  0.0%
x264 [info]: ref B L0: 63.5% 17.7%  8.6%  4.8%  3.2%  1.6%  0.6%
x264 [info]: ref B L1: 90.5%  9.5%
x264 [info]: kb/s:1999.52
Музыка, которую исполняет Эмили на фортепьяно после ухода священника - op.3 №2 С.В. Рахманинова, или же его знаменитая прелюдия cis-moll.
Премия канала «MTV», 2006 год
Победитель (1):

* Лучшая роль в фильме ужасов/триллере (Дженнифер Карпентер)

Номинации (1):

* Прорыв года (Дженнифер Карпентер)

Сатурн, 2006 год
Победитель (1):

* Лучший фильм ужасов

Номинации (2):

* Лучшая актриса (Лора Линни)
* Лучшая актриса второго плана (Дженнифер Карпентер)
Огромная благодарность Дяде Шарику за предоставленное железо для создания релиза

Скриншоты



Время раздачи: Круглосуточно, до первых 10-и скачавших
Приятного просмотра!

 
Не забывайте говорить Спасибо. Не уходите с раздачи!   
Торрент: Зарегистрирован [13 июл 2015, 18:49] Для скачивания .torrent
необходима регистрация
Или скачать с помощью
MediaGet
Статус:
Проверен
 
.torrent скачан: 0 раз
Хэш: 7d2ef18a50a34b3d3158ab174e7a90d503bfca08
Размер: 1.98 ГБ (2 129 589 419 байт)
Стать Автором раздачи
 
 
Раздал: 690.52 МБ
Скачал: 0 байт
Ратио: Seed.
Сообщения: 218210
Зарегистрирован: 14 июн 2014, 21:11


  • Похожие торренты
    Ответы
    Просмотры
    Последнее сообщение

Вернуться в Видео для мобильных устройств

Ресурс не предоставляет электронные версии произведений, а занимается лишь коллекционированием и каталогизацией ссылок, присылаемых и публикуемых на форуме нашими читателями. Если вы являетесь правообладателем какого-либо представленного материала и не желаете чтобы ссылка на него находилась в нашем каталоге, свяжитесь с нами и мы незамедлительно удалим её. Файлы для обмена на трекере предоставлены пользователями сайта, и администрация не несёт ответственности за их содержание. Просьба не заливать файлы, защищенные авторскими правами, а также файлы нелегального содержания!
cron