Da Vinci Learning: Зигзаги (Причуды) науки / Quirky science [12 выпусков из 15] (2013) SATRip [обновляемая]

 
 Статистика раздачи 
Размер: 4.5 ГБ   |  Зарегистрирован: 12 июл 2015, 16:51   |   .torrent скачан: 1 раз
Сидеров: 1  [ 0 байт/сек ]     Личеров: 0  [ 0 байт/сек ]  
  

Da Vinci Learning: Зигзаги (Причуды) науки / Quirky science [12 выпусков из 15] (2013) SATRip [обновляемая]

Сообщение Thistoll » 12 июл 2015, 16:51

Da Vinci Learning: Зигзаги (Причуды) науки / Quirky science [12 выпусков из 15] (2013) SATRip

Телекомпания: Science Centre & Media Develepment Authority
Режиссер: Ли Тэн-Джин, Мими Соэтеман, Каран Ков/ Lee Thean-jeen, Mimi Soeteman, Karan Kow
Жанр: Документальный, познавательный, история науки, техники

Участники: ведущий - Grub Smith

Описание:
Наука не всегда идет прямым путем. Многие величайшие научные открытия были сделаны случайно или по ошибке. Мы будем исследовать кривые тропки науки, узнавая по пути самые удивительные истории.
Список серий:
Компьютер / Computers
Лекарства / Cures
Интернет / Internet
Свет / Light
Бумага / Paper
Пластик / Plastic
Резина / Rubber
Телефон / Telephone
Волны / Waves
Полёт / Flight

Охлаждение / Сool
Консервы / Canned
Virtual World
Electric Mind
Порох / Gunpowder

Продолжительность: 11x~00:25:05
Качество видео: SATRip

Перевод: Одноголосый закадровый, профессиональный

Видео: Xvid, 704x400, ~25fps ~1950 Kbps
Аудио: AC3, 2 ch, 48kHz, 192 kbps
Код:
Код: Выделить всё
Format                         : AVI
Format/Info                    : Audio Video Interleave
File size                      : 386 MiB
Duration                       : 25mn 5s
Overall bit rate               : 2 151 Kbps
Writing application            : VirtualDubMod 1.5.10.3 | [url=http://www.virtualdub-fr.org]www.virtualdub-fr.org[/url] || (build 2550/release)
Writing library                : VirtualDubMod build 2550/release

Video
ID                             : 0
Format                         : MPEG-4 Visual
Format profile                 : Advanced Simple@L5
Format settings, BVOP          : 2
Format settings, QPel          : Yes
Format settings, GMC           : 3 warppoints
Format settings, Matrix        : Default (H.263)
Codec ID                       : XVID
Codec ID/Hint                  : XviD
Duration                       : 25mn 5s
Bit rate                       : 1 950 Kbps
Width                          : 704 pixels
Height                         : 400 pixels
Display aspect ratio           : 16:9
Frame rate                     : 25.000 fps
Color space                    : YUV
Chroma subsampling             : 4:2:0
Bit depth                      : 8 bits
Scan type                      : Progressive
Compression mode               : Lossy
Bits/(Pixel*Frame)             : 0.277
Stream size                    : 350 MiB (91%)
Writing library                : XviD 1.2.1 (UTC 2008-12-04)

Audio
ID                             : 1
Format                         : AC-3
Format/Info                    : Audio Coding 3
Mode extension                 : CM (complete main)
Format settings, Endianness    : Big
Codec ID                       : 2000
Duration                       : 25mn 5s
Bit rate mode                  : Constant
Bit rate                       : 192 Kbps
Channel(s)                     : 2 channels
Channel positions              : Front: L R
Sampling rate                  : 48.0 KHz
Compression mode               : Lossy
Stream size                    : 34.5 MiB (9%)
Alignment                      : Split accross interleaves
Interleave, duration           : 40 ms (1.00 video frame)
Interleave, preload duration   : 500 ms

Скриншоты:



Время раздачи: до 23:00 к.в.

 
Не забывайте говорить Спасибо. Не уходите с раздачи!   
Торрент: Зарегистрирован [12 июл 2015, 16:51] Для скачивания .torrent
необходима регистрация
Или скачать с помощью
MediaGet
Статус:
Проверен
 
.torrent скачан: 1 раз
Хэш: 60db1fd0d1ebfd5d26c196d65f67100c38176b30
Размер: 4.5 ГБ (4 832 274 432 байт)
Стать Автором раздачи
 
 
Раздал: 6.67 ГБ
Скачал: 302.5 МБ
Ратио: 22.576
Сообщения: 374198
Зарегистрирован: 17 апр 2014, 11:05


  • Похожие торренты
    Ответы
    Просмотры
    Последнее сообщение

Вернуться в Da Vinci Learning

Кто сейчас на конференции

Сейчас эту тему просматривают: нет зарегистрированных пользователей и гости: 1

Ресурс не предоставляет электронные версии произведений, а занимается лишь коллекционированием и каталогизацией ссылок, присылаемых и публикуемых на форуме нашими читателями. Если вы являетесь правообладателем какого-либо представленного материала и не желаете чтобы ссылка на него находилась в нашем каталоге, свяжитесь с нами и мы незамедлительно удалим её. Файлы для обмена на трекере предоставлены пользователями сайта, и администрация не несёт ответственности за их содержание. Просьба не заливать файлы, защищенные авторскими правами, а также файлы нелегального содержания!