ВИА ГРА - Избранное (Видеография, лучшие хиты ''2000-2010'') (2015) WEBRip [H.264/720p-LQ]

 
 Статистика раздачи 
Размер: 2.47 ГБ   |  Зарегистрирован: 11 июл 2015, 03:01   |   .torrent скачан: 4 раз
Сидеров: 1  [ 0 байт/сек ]     Личеров: 0  [ 0 байт/сек ]  
  

ВИА ГРА - Избранное (Видеография, лучшие хиты ''2000-2010'') (2015) WEBRip [H.264/720p-LQ]

Сообщение Thistoll » 11 июл 2015, 03:01

ВИА ГРА - Избранное (Видеография, лучшие хиты) (2015) WEBRip

Жанр: Pop

Описание:
Лучшая подборка видео хитов за 2000 - 2010 годы.

Продолжительность: 01:52:39
Качество видео: WEBRip

Видео: AVC/H.264, 1920x1080 (16:9), 25.000 fps, ~ 2997 kbps
Аудио: AAC, 2 ch, 44.1 kHz, 152 Kbps, VBR
ВИА Гра» (англ. Nu Virgos, украинец. ВІА Гра) — украинская женская поп-группа, образованная в 2000 году в Киеве. Коллектив считается одним из самых успешных русскоязычных музыкальных проектов 2000-х годов. Группой было записано 5 студийных альбомов: 3 из них получили золотой статус в России, 1 англоязычный альбом получил платиновый статус в Таиланде и золотой в некоторых других Азиатских странах; выпущено более 30 радиосинглов и видеоклипов. «ВИА Гра» является лауреатом множества музыкальных премий, таких как «Золотой диск», «Золотой граммофон», «Премия Муз-ТВ» и других.
Характерной особенностью коллектива является частая смена участниц, что говорит о том, что группа является коммерческим продюсерским проектом. Музыкальный продюсер группы — композитор Константин Меладзе. Создатель группы — украинский бизнесмен Дмитрий Костюк, с начала существования группы и до 2011 года он исполнял роль генерального продюсера проекта.
Пик популярности группы пришёлся на 2003 год, тогда участницами «ВИА Гры» являлись Анна Седокова, Надежда Грановская и Вера Брежнева. Журналисты и поклонники коллектива традиционно называют этот состав «золотым» — под этим подразумевается, что этот состав был «классическим», самым сильным по мнению музыкальных критиков, популярным и творчески плодотворным.
Название группы — аллюзия на лекарственный препарат Виагра и расшифровывается как ВИА — вокально-инструментальный ансамбль; украинец. гра — игра. В 2003 году, выпустив дебютный англоязычный альбом под именем «V.I.A. „Gra“» и получив угрозу судебного иска от производителей препарата, руководство Sony Music дало группе псевдоним «Nu Virgos».
Треклист:
1. Попытка N5 00:01
2. Обними меня 03:20
3. Бомба 07:08
4. Я не вернусь 10:31
5. Стоп! Стоп! Стоп! 14:12
6. Good Morning, папа! 17:53
7. Не оставляй меня, любимый! 21:21
8. Убей мою подругу! 24:49
9. Вот таки дела 28:48
10. Океан и три реки 32:22
11. Биология 36:13
12. Притяженья больше нет 39:59
13. Мир, о котором я не знала до тебя 44:37
14. Ой говорила чиста вода (мюзикл Сорочинская ярмарка) 48:29
15. Мне оно не нравится (мюзикл Сорочинская ярмарка) 52:21
16. Нет ничего хуже 56:02
17. Бриллианты 59:39
18. Обмани, но останься 1:03:01
19. Л.М.Л 1:07:18
20. Цветок и нож 1:11:19
21. Поцелуи 1:16:08
22. Лей дождь мечты (мюзикл "Первый дома") 1:20:21
23. Я не боюсь 1:23:41
24. My Emancipation 1:28:04
25. Американская жена 1:32:19
26. Антигейша 1:35:16
27. Сумасшедший 1:38:45
28. Мечтай (Новогодняя ночь, Первый канал) 1:42:33
29. Пошёл вон 1:45:02
30. День без тебя 1:49:05
Код:
Код: Выделить всё
Общее
Полное имя : ВИА ГРА - Избранное (Видеография, лучшие хиты).mp4
Формат : MPEG-4
Профиль формата : Base Media
Идентификатор кодека : isom
Размер файла : 2,47 Гбайт
Продолжительность : 1 ч. 52 м.
Режим общего битрейта : Переменный
Общий поток : 3136 Кбит/сек
Программа кодирования : Lavf54.63.104

Видео
Идентификатор : 1
Формат : AVC
Формат/Информация : Advanced Video Codec
Профиль формата :
Параметр CABAC формата : Да
Параметр ReFrames формата : 1 кадр
Идентификатор кодека : avc1
Идентификатор кодека/Информация : Advanced Video Coding
Продолжительность : 1 ч. 52 м.
Битрейт : 2997 Кбит/сек
Ширина : 1280 пикселей
Высота : 720 пикселей
Соотношение сторон : 16:9
Режим частоты кадров : Постоянный
Частота кадров : 25,000 кадров/сек
Цветовое пространство : YUV
Субдискретизация насыщенности : 4:2:0
Битовая глубина : 8 бит
Тип развёртки : Прогрессивная
Бит/(Пиксели*Кадры) : 0.130
Размер потока : 2,34 Гбайт (95%)
Библиотека кодирования : x264 core 129
Настройки программы : cabac=1 / ref=1 / deblock=1:0:0 / analyse=0x1:0x131 / me=dia / subme=2 / psy=1 / psy_rd=1.00:0.00 / mixed_ref=0 / me_range=16 / chroma_me=1 / trellis=0 / 8x8dct=0 / cqm=0 / deadzone=21,11 / fast_pskip=1 / chroma_qp_offset=0 / threads=2 / lookahead_threads=1 / sliced_threads=0 / nr=0 / decimate=1 / interlaced=0 / bluray_compat=0 / constrained_intra=0 / bframes=0 / weightp=2 / keyint=250 / keyint_min=25 / scenecut=40 / intra_refresh=0 / rc_lookahead=40 / rc=abr / mbtree=1 / bitrate=2997 / ratetol=1.0 / qcomp=0.60 / qpmin=10 / qpmax=51 / qpstep=4 / ip_ratio=1.41 / aq=1:1.00

Аудио
Идентификатор : 2
Формат : AAC
Формат/Информация : Advanced Audio Codec
Профиль формата : LC
Идентификатор кодека : 40
Продолжительность : 1 ч. 52 м.
Duration_FirstFrame : 70 мс.
Вид битрейта : Переменный
Битрейт : 152 Кбит/сек
Максимальный битрейт : 176 Кбит/сек
Каналы : 2 канала
Расположение каналов : Front: L R
Частота : 44,1 КГц
Метод сжатия : С потерями
Размер потока : 122 Мбайт (5%)
За основу взята раздача Уважаемого vovan8665511. За что огромное спасибо!

Скриншоты:



Время раздачи: 24/7 - до 5 скачавших, далее по возможности.
 
Не забывайте говорить Спасибо. Не уходите с раздачи!   
Торрент: Зарегистрирован [11 июл 2015, 03:01] Скачать торрент
Скачать торрент
[ Размер 13.19 КБ / Просмотров 24 ]
Статус:
Проверен
 
.torrent скачан: 4 раз
Хэш: dbf9ff16d8a9def49b9c0c04e3a2c2e4e8724a90
Размер: 2.47 ГБ (2 649 531 776 байт)
Стать Автором раздачи
 
 
Раздал: 6.67 ГБ
Скачал: 302.5 МБ
Ратио: 22.576
Сообщения: 374198
Зарегистрирован: 17 апр 2014, 11:05


  • Похожие торренты
    Ответы
    Просмотры
    Последнее сообщение

Вернуться в Музыкальные клипы (транзит)

Ресурс не предоставляет электронные версии произведений, а занимается лишь коллекционированием и каталогизацией ссылок, присылаемых и публикуемых на форуме нашими читателями. Если вы являетесь правообладателем какого-либо представленного материала и не желаете чтобы ссылка на него находилась в нашем каталоге, свяжитесь с нами и мы незамедлительно удалим её. Файлы для обмена на трекере предоставлены пользователями сайта, и администрация не несёт ответственности за их содержание. Просьба не заливать файлы, защищенные авторскими правами, а также файлы нелегального содержания!
cron