VA - Nassau Beach Club Ibiza 2015 (2015) 2CD [FLAC|tracks + .cue]<Deep House, Chill House, House>

 
 Статистика раздачи 
Размер: 1.06 ГБ   |  Зарегистрирован: 08 июл 2015, 17:03   |   .torrent скачан: 0 раз
Сидеров: 1  [ 0 байт/сек ]     Личеров: 0  [ 0 байт/сек ]  
  

VA - Nassau Beach Club Ibiza 2015 (2015) 2CD [FLAC|tracks + .cue]<Deep House, Chill House, House>

Сообщение Seepas » 08 июл 2015, 17:03

VA - Nassau Beach Club Ibiza 2015 (2015)


Год:
2015 Жанр: Deep House, Chill House, House Продолжительность: 02:36:40
Страна: All World Лейбл: Kontor Records Каталог: LC02182
Кодек: FLAC(tracks + .cue) Битрейт: Lossless
Треклист:
Продолжительность: 01:16:32
Треклист:

01. Daniele Mastracci Feat. Allegra - Something Great (5:07)
02. Jetlag Feat. Esther - Walk With Me (4:34)
03. Vincenzo Feat. Minako - Just Like Heaven (4:26)
04. Cucumbers - True (Alex Kentucky Beach Mix) (5:07)
05. Deep Fresh - Baby Baby (4:50)
06. Fedor K Feat. Nina Hadzi - Antich - Adam Without Eve (Lessovsky Remix) (6:59)
07. Arthur M - Dreamers (Tosel & Hale Remix) (5:55)
08. Audion Feat. Troels Abrahamsen - Dem Howl (Joris Voorn Mix) (6:36)
09. Vintage Lounge Orchestra - Georgy Porgy (Larse Remix) (5:38)
10. Mat.Joe Feat. Zach Joss - Lost Your Mind (5:07)
11. Stan Kolev, Yuji Ono - Try (6:27)
12. Marra Kesh & Khetama - Sunshine (5:15)
13. Flutters - Those Days Are Over (Mark Lower Remix) (4:42)
14. Richard Feral Feat. Miriam Almar - Little Boy Like You (5:47)
Код:
Код: Выделить всё
Exact Audio Copy V1.0 beta 4 from 7. December 2014

EAC extraction logfile from 1. July 2015, 20:18

Various Artists / Nassau Beach Club Ibiza 2015 - CD1 - Mixed By Alex Kentucky

Used drive  : ASUS    DRW-24B3ST   Adapter: 1  ID: 2

Read mode               : Secure
Utilize accurate stream : Yes
Defeat audio cache      : Yes
Make use of C2 pointers : No

Read offset correction                      : 6
Overread into Lead-In and Lead-Out          : No
Fill up missing offset samples with silence : Yes
Delete leading and trailing silent blocks   : No
Null samples used in CRC calculations       : Yes
Used interface                              : Native Win32 interface for Win NT & 2000
Gap handling                                : Appended to previous track

Used output format              : User Defined Encoder
Selected bitrate                : 896 kBit/s
Quality                         : High
Add ID3 tag                     : No
Command line compressor         : C:\Program Files (x86)\Exact Audio Copy\Flac\flac.exe
Additional command line options : -8 -V -T "ARTIST=%artist%" -T "TITLE=%title%" -T "ALBUM=%albumtitle%" -T "DATE=%year%" -T "TRACKNUMBER=%tracknr%" -T "GENRE=%genre%" -T "COMMENT=ripped by Oleandris" %source%

TOC of the extracted CD

     Track |   Start  |  Length  | Start sector | End sector
    ---------------------------------------------------------
        1  |  0:00.00 |  5:07.15 |         0    |    23039
        2  |  5:07.15 |  4:34.23 |     23040    |    43612
        3  |  9:41.38 |  4:26.15 |     43613    |    63577
        4  | 14:07.53 |  5:06.43 |     63578    |    86570
        5  | 19:14.21 |  4:50.33 |     86571    |   108353
        6  | 24:04.54 |  6:59.30 |    108354    |   139808
        7  | 31:04.09 |  5:55.05 |    139809    |   166438
        8  | 36:59.14 |  6:36.28 |    166439    |   196166
        9  | 43:35.42 |  5:37.65 |    196167    |   221506
       10  | 49:13.32 |  5:06.41 |    221507    |   244497
       11  | 54:19.73 |  6:27.19 |    244498    |   273541
       12  | 60:47.17 |  5:14.47 |    273542    |   297138
       13  | 66:01.64 |  4:42.28 |    297139    |   318316
       14  | 70:44.17 |  5:47.22 |    318317    |   344363

Track  1

     Filename J:\AUDIO - II\ House (Dream, Techno, Chill, Deep) - Trance - Club\ Nassau Beach Club Ibiza 2CD (2015)\CD1 - Mixed By Alex Kentucky\01. Daniele Mastracci Feat. Allegra - Something Great.wav

     Pre-gap length  0:00:02.00

     Peak level 98.8 %
     Extraction speed 3.9 X
     Track quality 100.0 %
     Test CRC 04B8B2A3
     Copy CRC 04B8B2A3
     Track not present in AccurateRip database
     Copy OK

Track  2

     Filename J:\AUDIO - II\ House (Dream, Techno, Chill, Deep) - Trance - Club\ Nassau Beach Club Ibiza 2CD (2015)\CD1 - Mixed By Alex Kentucky\02. Jetlag Feat. Esther - Walk With Me.wav

     Peak level 98.8 %
     Extraction speed 4.3 X
     Track quality 100.0 %
     Test CRC CCDB87A1
     Copy CRC CCDB87A1
     Track not present in AccurateRip database
     Copy OK

Track  3

     Filename J:\AUDIO - II\ House (Dream, Techno, Chill, Deep) - Trance - Club\ Nassau Beach Club Ibiza 2CD (2015)\CD1 - Mixed By Alex Kentucky\03. Vincenzo Feat. Minako - Just Like Heaven.wav

     Peak level 98.8 %
     Extraction speed 4.6 X
     Track quality 100.0 %
     Test CRC 09A527FD
     Copy CRC 09A527FD
     Track not present in AccurateRip database
     Copy OK

Track  4

     Filename J:\AUDIO - II\ House (Dream, Techno, Chill, Deep) - Trance - Club\ Nassau Beach Club Ibiza 2CD (2015)\CD1 - Mixed By Alex Kentucky\04. Cucumbers - True (Alex Kentucky Beach Mix).wav

     Peak level 98.8 %
     Extraction speed 5.1 X
     Track quality 100.0 %
     Test CRC 2E8EE2FF
     Copy CRC 2E8EE2FF
     Track not present in AccurateRip database
     Copy OK

Track  5

     Filename J:\AUDIO - II\ House (Dream, Techno, Chill, Deep) - Trance - Club\ Nassau Beach Club Ibiza 2CD (2015)\CD1 - Mixed By Alex Kentucky\05. Deep Fresh - Baby Baby.wav

     Peak level 98.8 %
     Extraction speed 5.4 X
     Track quality 100.0 %
     Test CRC 7313BD5A
     Copy CRC 7313BD5A
     Track not present in AccurateRip database
     Copy OK

Track  6

     Filename J:\AUDIO - II\ House (Dream, Techno, Chill, Deep) - Trance - Club\ Nassau Beach Club Ibiza 2CD (2015)\CD1 - Mixed By Alex Kentucky\06. Fedor K Feat. Nina Hadzi - Antich - Adam Without Eve (Lessovsky Remix).wav

     Peak level 98.8 %
     Extraction speed 6.0 X
     Track quality 100.0 %
     Test CRC BB3521AB
     Copy CRC BB3521AB
     Track not present in AccurateRip database
     Copy OK

Track  7

     Filename J:\AUDIO - II\ House (Dream, Techno, Chill, Deep) - Trance - Club\ Nassau Beach Club Ibiza 2CD (2015)\CD1 - Mixed By Alex Kentucky\07. Arthur M - Dreamers (Tosel & Hale Remix).wav

     Peak level 98.8 %
     Extraction speed 6.2 X
     Track quality 100.0 %
     Test CRC 18006797
     Copy CRC 18006797
     Track not present in AccurateRip database
     Copy OK

Track  8

     Filename J:\AUDIO - II\ House (Dream, Techno, Chill, Deep) - Trance - Club\ Nassau Beach Club Ibiza 2CD (2015)\CD1 - Mixed By Alex Kentucky\08. Audion Feat. Troels Abrahamsen - Dem Howl (Joris Voorn Mix).wav

     Peak level 98.8 %
     Extraction speed 5.7 X
     Track quality 99.9 %
     Test CRC C450EB1C
     Copy CRC C450EB1C
     Track not present in AccurateRip database
     Copy OK

Track  9

     Filename J:\AUDIO - II\ House (Dream, Techno, Chill, Deep) - Trance - Club\ Nassau Beach Club Ibiza 2CD (2015)\CD1 - Mixed By Alex Kentucky\09. Vintage Lounge Orchestra - Georgy Porgy (Larse Remix).wav

     Peak level 98.8 %
     Extraction speed 6.8 X
     Track quality 100.0 %
     Test CRC 4388F75C
     Copy CRC 4388F75C
     Track not present in AccurateRip database
     Copy OK

Track 10

     Filename J:\AUDIO - II\ House (Dream, Techno, Chill, Deep) - Trance - Club\ Nassau Beach Club Ibiza 2CD (2015)\CD1 - Mixed By Alex Kentucky\10. Mat.Joe Feat. Zach Joss - Lost Your Mind.wav

     Peak level 98.8 %
     Extraction speed 7.1 X
     Track quality 100.0 %
     Test CRC 2C075B36
     Copy CRC 2C075B36
     Track not present in AccurateRip database
     Copy OK

Track 11

     Filename J:\AUDIO - II\ House (Dream, Techno, Chill, Deep) - Trance - Club\ Nassau Beach Club Ibiza 2CD (2015)\CD1 - Mixed By Alex Kentucky\11. Stan Kolev, Yuji Ono - Try.wav

     Peak level 98.8 %
     Extraction speed 7.4 X
     Track quality 100.0 %
     Test CRC C00719F4
     Copy CRC C00719F4
     Track not present in AccurateRip database
     Copy OK

Track 12

     Filename J:\AUDIO - II\ House (Dream, Techno, Chill, Deep) - Trance - Club\ Nassau Beach Club Ibiza 2CD (2015)\CD1 - Mixed By Alex Kentucky\12. Marra Kesh & Khetama - Sunshine.wav

     Peak level 98.8 %
     Extraction speed 7.6 X
     Track quality 100.0 %
     Test CRC C412C54E
     Copy CRC C412C54E
     Track not present in AccurateRip database
     Copy OK

Track 13

     Filename J:\AUDIO - II\ House (Dream, Techno, Chill, Deep) - Trance - Club\ Nassau Beach Club Ibiza 2CD (2015)\CD1 - Mixed By Alex Kentucky\13. Flutters - Those Days Are Over (Mark Lower Remix).wav

     Peak level 98.8 %
     Extraction speed 7.7 X
     Track quality 100.0 %
     Test CRC 49B1E071
     Copy CRC 49B1E071
     Track not present in AccurateRip database
     Copy OK

Track 14

     Filename J:\AUDIO - II\ House (Dream, Techno, Chill, Deep) - Trance - Club\ Nassau Beach Club Ibiza 2CD (2015)\CD1 - Mixed By Alex Kentucky\14. Richard Feral Feat. Miriam Almar - Little Boy Like You.wav

     Peak level 98.8 %
     Extraction speed 6.8 X
     Track quality 99.9 %
     Test CRC 8BB73B0F
     Copy CRC 8BB73B0F
     Track not present in AccurateRip database
     Copy OK

None of the tracks are present in the AccurateRip database

No errors occurred

End of status report

---- CUETools DB Plugin V2.1.4

[CTDB TOCID: XKRSg8k0U7KuZhFpptxHggbkr1k-] found
Submit result: XKRSg8k0U7KuZhFpptxHggbkr1k- has been confirmed
Track | CTDB Status
  1   | (8/8) Accurately ripped
  2   | (8/8) Accurately ripped
  3   | (8/8) Accurately ripped
  4   | (8/8) Accurately ripped
  5   | (8/8) Accurately ripped
  6   | (8/8) Accurately ripped
  7   | (8/8) Accurately ripped
  8   | (8/8) Accurately ripped
  9   | (8/8) Accurately ripped
 10   | (8/8) Accurately ripped
 11   | (8/8) Accurately ripped
 12   | (8/8) Accurately ripped
 13   | (8/8) Accurately ripped
 14   | (8/8) Accurately ripped

==== Log checksum 07DCEF13B86039567F96890C3BFC62BB4A1FB77A4983B8934976104FA88ADD4D ====
Код:
Код: Выделить всё
-----------------------

DON'T MODIFY THIS FILE

-----------------------

PERFORMER: auCDtect Task Manager, ver. 1.6.0 RC1 build 1.6.0.1
Copyright (c) 2008-2010 y-soft. All rights reserved
http:/y-soft.org

ANALYZER: auCDtect: CD records authenticity detector, version 0.8.2
Copyright (c) 2004 Oleg Berngardt. All rights reserved.
Copyright (c) 2004 Alexander Djourik. All rights reserved.

FILE: 14. Richard Feral Feat. Miriam Almar - Little Boy Like You.flac
  Size: 35638039 Hash: 2B8BC867918CA3EF58C60A43BDF04986 Accuracy: -m0
  Conclusion: CDDA 100%
  Signature: A41658349635626EF077A12B727E43481998FF37
FILE: 13. Flutters - Those Days Are Over (Mark Lower Remix).flac
  Size: 26930091 Hash: 21EFED7B14287DF37810BADA23A139A6 Accuracy: -m0
  Conclusion: CDDA 100%
  Signature: 43E9056C8307D9DC3A8606D802824846DDE282F0
FILE: 12. Marra Kesh & Khetama - Sunshine.flac
  Size: 36070388 Hash: 323350D8F97C5083EEC004FA5585349E Accuracy: -m0
  Conclusion: MPEG 95%
  Signature: 15FC24E10B0E3CECC01433ACF3A77CEEEEEBDD4C
FILE: 11. Stan Kolev, Yuji Ono - Try.flac
  Size: 42026115 Hash: 95CB338A3AAF0B28AA319D4618BB27CC Accuracy: -m0
  Conclusion: MPEG 95%
  Signature: CC28A5D5FA529D7B03F757A564D22ADA2524D5BB
FILE: 10. Mat.Joe Feat. Zach Joss - Lost Your Mind.flac
  Size: 36546386 Hash: CA345B7E3B909A8D2BFE90FE5B7BF6C1 Accuracy: -m0
  Conclusion: MPEG 95%
  Signature: 41E58C1C59567EDD902C7FFF334B83FDB61EDA48
FILE: 09. Vintage Lounge Orchestra - Georgy Porgy (Larse Remix).flac
  Size: 43135115 Hash: 7C4E7463CD963C0B8D4372113A345A85 Accuracy: -m0
  Conclusion: MPEG 95%
  Signature: 872FBF1A8EC47DE3F842F9E039B39FB58D3476DB
FILE: 08. Audion Feat. Troels Abrahamsen - Dem Howl (Joris Voorn Mix).flac
  Size: 45091042 Hash: DCA3B9EFA1EEDE0015D3A64B0C7B1436 Accuracy: -m0
  Conclusion: MPEG 95%
  Signature: CF01216D8CDCC7350A977E0C9E8871D0A02497F1
FILE: 07. Arthur M - Dreamers (Tosel & Hale Remix).flac
  Size: 36829679 Hash: D698A90789AEEF9F0F5BB71AB330308B Accuracy: -m0
  Conclusion: MPEG 95%
  Signature: 7B6B33758780305865CF573E6373C93ADC423E7D
FILE: 06. Fedor K Feat. Nina Hadzi - Antich - Adam Without Eve (Lessovsky Remix).flac
  Size: 46790410 Hash: 2C653A2BFEA8A71D43BC6C13F5B99750 Accuracy: -m0
  Conclusion: MPEG 95%
  Signature: 6ABB493B0396FDB01B940E5771B68F2842CFE21E
FILE: 05. Deep Fresh - Baby Baby.flac
  Size: 30735727 Hash: 2766F30A2E0D2223A97D30845898356B Accuracy: -m0
  Conclusion: MPEG 95%
  Signature: 55FB62F9985155CDD3CDF667FC1FF5055B411817
FILE: 04. Cucumbers - True (Alex Kentucky Beach Mix).flac
  Size: 33527078 Hash: 356D649E84B42E937F61992CD2094DB2 Accuracy: -m0
  Conclusion: MPEG 95%
  Signature: 5A6697905DAF348B8D91BB32E720C5CB4AF50200
FILE: 03. Vincenzo Feat. Minako - Just Like Heaven.flac
  Size: 27224676 Hash: B7670BF65DCA2269D3CF8A03DB9948EB Accuracy: -m0
  Conclusion: CDDA 100%
  Signature: 89FACB373E311ECCC066C7B4A1BE51C552986D10
FILE: 02. Jetlag Feat. Esther - Walk With Me.flac
  Size: 27913941 Hash: 97D0C8478AB16ABE3C23BEE99F6E261B Accuracy: -m0
  Conclusion: MPEG 95%
  Signature: E2E51706F0A2D6A1384002043605B97682865A56
FILE: 01. Daniele Mastracci Feat. Allegra - Something Great.flac
  Size: 29259019 Hash: 8EB6982A2F0E83381E434DB91563BB5E Accuracy: -m0
  Conclusion: MPEG 95%
  Signature: D7FE35EAA76F8462EE638BA3B5436C20F9D4BAE9
Код:
Код: Выделить всё
REM GENRE "Deep House"
REM DATE 2015
REM DISCID D711EF0E
REM COMMENT "ExactAudioCopy v1.0b4"
CATALOG 4250117649951
PERFORMER "Various Artists"
TITLE "Nassau Beach Club Ibiza 2015 - CD1 - Mixed By Alex Kentucky"
FILE "01. Daniele Mastracci Feat. Allegra - Something Great.wav" WAVE
  TRACK 01 AUDIO
    TITLE "Something Great"
    PERFORMER "Daniele Mastracci Feat. Allegra"
    ISRC USEAX1401725
    INDEX 01 00:00:00
FILE "02. Jetlag Feat. Esther - Walk With Me.wav" WAVE
  TRACK 02 AUDIO
    TITLE "Walk With Me"
    PERFORMER "Jetlag Feat. Esther"
    ISRC DEN061401415
    INDEX 01 00:00:00
FILE "03. Vincenzo Feat. Minako - Just Like Heaven.wav" WAVE
  TRACK 03 AUDIO
    TITLE "Just Like Heaven"
    PERFORMER "Vincenzo Feat. Minako"
    ISRC NLZ541300616
    INDEX 01 00:00:00
FILE "04. Cucumbers - True (Alex Kentucky Beach Mix).wav" WAVE
  TRACK 04 AUDIO
    TITLE "True (Alex Kentucky Beach Mix)"
    PERFORMER "Cucumbers"
    ISRC GBPQS1200013
    INDEX 01 00:00:00
FILE "05. Deep Fresh - Baby Baby.wav" WAVE
  TRACK 05 AUDIO
    TITLE "Baby Baby"
    PERFORMER "Deep Fresh"
    INDEX 01 00:00:00
FILE "06. Fedor K Feat. Nina Hadzi - Antich - Adam Without Eve (Lessovsky Remix).wav" WAVE
  TRACK 06 AUDIO
    TITLE "Adam Without Eve (Lessovsky Remix)"
    PERFORMER "Fedor K Feat. Nina Hadzi - Antich"
    ISRC GBENT1330151
    INDEX 01 00:00:00
FILE "07. Arthur M - Dreamers (Tosel & Hale Remix).wav" WAVE
  TRACK 07 AUDIO
    TITLE "Dreamers (Tosel & Hale Remix)"
    PERFORMER "Arthur M"
    ISRC GBSCL1413028
    INDEX 01 00:00:00
FILE "08. Audion Feat. Troels Abrahamsen - Dem Howl (Joris Voorn Mix).wav" WAVE
  TRACK 08 AUDIO
    TITLE "Dem Howl (Joris Voorn Mix)"
    PERFORMER "Audion Feat. Troels Abrahamsen"
    ISRC DEPI81500116
    INDEX 01 00:00:00
FILE "09. Vintage Lounge Orchestra - Georgy Porgy (Larse Remix).wav" WAVE
  TRACK 09 AUDIO
    TITLE "Georgy Porgy (Larse Remix)"
    PERFORMER "Vintage Lounge Orchestra"
    ISRC CH4480900020
    INDEX 01 00:00:00
FILE "10. Mat.Joe Feat. Zach Joss - Lost Your Mind.wav" WAVE
  TRACK 10 AUDIO
    TITLE "Lost Your Mind"
    PERFORMER "Mat.Joe Feat. Zach Joss"
    ISRC DEPI81302824
    INDEX 01 00:00:00
FILE "11. Stan Kolev, Yuji Ono - Try.wav" WAVE
  TRACK 11 AUDIO
    TITLE "Try"
    PERFORMER "Stan Kolev, Yuji Ono"
    ISRC FR89P1407350
    INDEX 01 00:00:00
FILE "12. Marra Kesh & Khetama - Sunshine.wav" WAVE
  TRACK 12 AUDIO
    TITLE "Sunshine"
    PERFORMER "Marra Kesh & Khetama"
    ISRC GBCPZ1407670
    INDEX 01 00:00:00
FILE "13. Flutters - Those Days Are Over (Mark Lower Remix).wav" WAVE
  TRACK 13 AUDIO
    TITLE "Those Days Are Over (Mark Lower Remix)"
    PERFORMER "Flutters"
    INDEX 01 00:00:00
FILE "14. Richard Feral Feat. Miriam Almar - Little Boy Like You.wav" WAVE
  TRACK 14 AUDIO
    TITLE "Little Boy Like You"
    PERFORMER "Richard Feral Feat. Miriam Almar"
    ISRC ES60A1501484
    INDEX 01 00:00:00


#77Продолжительность: 01:20:10
Треклист:

01. Marlena Shaw - Woman Of The Ghetto (Akshin Alizadeh Remix) (2:58)
02. Mass Digital - Dayspring (6:25)
03. Parra For Cuva Feat. Anna Naklab - Wicked Games (5:24)
04. Mash - Style Is The Answer (6:43)
05. DaZZla - Golden Chyld (5:20)
06. West.K Feat. Nathalie - Desire (4:48)
07. Kydus & DJ Dep - Cala El Verano (4:16)
08. Paul C & Paolo Martini - Bermuda (5:43)
09. Cesar Merveille & Pablo Cahn - Tribute (9:11)
10. Namito, Solmaz Lou - Janin (6:48)
11. Watermat - Bullit (5:50)
12. Gerd Feat. Marcoradi - Still Believe (6:35)
13. Edu Imbernon - Dalt (5:52)
14. Richard Grey - Need Your Lovin (MURJD Remix) (4:16)
Код:
Код: Выделить всё
Exact Audio Copy V1.0 beta 4 from 7. December 2014

EAC extraction logfile from 1. July 2015, 21:46

Various Artists / Nassau Beach Club Ibiza 2015 - CD2 - Mixed By Dazzia

Used drive  : PLEXTOR DVDR   PX-L890SA   Adapter: 1  ID: 0

Read mode               : Secure
Utilize accurate stream : Yes
Defeat audio cache      : Yes
Make use of C2 pointers : No

Read offset correction                      : 6
Overread into Lead-In and Lead-Out          : No
Fill up missing offset samples with silence : Yes
Delete leading and trailing silent blocks   : No
Null samples used in CRC calculations       : Yes
Used interface                              : Native Win32 interface for Win NT & 2000
Gap handling                                : Appended to previous track

Used output format              : User Defined Encoder
Selected bitrate                : 896 kBit/s
Quality                         : High
Add ID3 tag                     : No
Command line compressor         : C:\Program Files (x86)\Exact Audio Copy\Flac\flac.exe
Additional command line options : -8 -V -T "ARTIST=%artist%" -T "TITLE=%title%" -T "ALBUM=%albumtitle%" -T "DATE=%year%" -T "TRACKNUMBER=%tracknr%" -T "GENRE=%genre%" -T "COMMENT=ripped by Oleandris" %source%

TOC of the extracted CD

     Track |   Start  |  Length  | Start sector | End sector
    ---------------------------------------------------------
        1  |  0:00.00 |  2:58.04 |         0    |    13353
        2  |  2:58.04 |  6:25.22 |     13354    |    42250
        3  |  9:23.26 |  5:23.63 |     42251    |    66538
        4  | 14:47.14 |  6:42.69 |     66539    |    96757
        5  | 21:30.08 |  5:20.12 |     96758    |   120769
        6  | 26:50.20 |  4:47.52 |    120770    |   142346
        7  | 31:37.72 |  4:15.59 |    142347    |   161530
        8  | 35:53.56 |  5:43.07 |    161531    |   187262
        9  | 41:36.63 |  9:11.18 |    187263    |   228605
       10  | 50:48.06 |  6:48.07 |    228606    |   259212
       11  | 57:36.13 |  5:50.16 |    259213    |   285478
       12  | 63:26.29 |  6:35.23 |    285479    |   315126
       13  | 70:01.52 |  5:51.42 |    315127    |   341493
       14  | 75:53.19 |  4:15.60 |    341494    |   360678

Track  1

     Filename J:\AUDIO - II\ House (Dream, Techno, Chill, Deep) - Trance - Club\ Nassau Beach Club Ibiza 2CD (2015)\CD2 - Mixed By Dazzia\01. Marlena Shaw - Woman Of The Ghetto (Akshin Alizadeh Remix).wav

     Pre-gap length  0:00:02.00

     Peak level 100.0 %
     Extraction speed 3.7 X
     Track quality 100.0 %
     Test CRC 102E6612
     Copy CRC 102E6612
     Track not present in AccurateRip database
     Copy OK

Track  2

     Filename J:\AUDIO - II\ House (Dream, Techno, Chill, Deep) - Trance - Club\ Nassau Beach Club Ibiza 2CD (2015)\CD2 - Mixed By Dazzia\02. Mass Digital - Dayspring.wav

     Peak level 100.0 %
     Extraction speed 4.5 X
     Track quality 100.0 %
     Test CRC 0CF5A40F
     Copy CRC 0CF5A40F
     Track not present in AccurateRip database
     Copy OK

Track  3

     Filename J:\AUDIO - II\ House (Dream, Techno, Chill, Deep) - Trance - Club\ Nassau Beach Club Ibiza 2CD (2015)\CD2 - Mixed By Dazzia\03. Parra For Cuva Feat. Anna Naklab - Wicked Games.wav

     Peak level 100.0 %
     Extraction speed 4.9 X
     Track quality 100.0 %
     Test CRC 850BD089
     Copy CRC 850BD089
     Track not present in AccurateRip database
     Copy OK

Track  4

     Filename J:\AUDIO - II\ House (Dream, Techno, Chill, Deep) - Trance - Club\ Nassau Beach Club Ibiza 2CD (2015)\CD2 - Mixed By Dazzia\04. Mash - Style Is The Answer.wav

     Peak level 100.0 %
     Extraction speed 5.5 X
     Track quality 100.0 %
     Test CRC C495C7FB
     Copy CRC C495C7FB
     Track not present in AccurateRip database
     Copy OK

Track  5

     Filename J:\AUDIO - II\ House (Dream, Techno, Chill, Deep) - Trance - Club\ Nassau Beach Club Ibiza 2CD (2015)\CD2 - Mixed By Dazzia\05. DaZZla - Golden Chyld.wav

     Peak level 100.0 %
     Extraction speed 5.8 X
     Track quality 100.0 %
     Test CRC F7086ADE
     Copy CRC F7086ADE
     Track not present in AccurateRip database
     Copy OK

Track  6

     Filename J:\AUDIO - II\ House (Dream, Techno, Chill, Deep) - Trance - Club\ Nassau Beach Club Ibiza 2CD (2015)\CD2 - Mixed By Dazzia\06. West.K Feat. Nathalie - Desire.wav

     Peak level 100.0 %
     Extraction speed 6.0 X
     Track quality 100.0 %
     Test CRC E05063E1
     Copy CRC E05063E1
     Track not present in AccurateRip database
     Copy OK

Track  7

     Filename J:\AUDIO - II\ House (Dream, Techno, Chill, Deep) - Trance - Club\ Nassau Beach Club Ibiza 2CD (2015)\CD2 - Mixed By Dazzia\07. Kydus & DJ Dep - Cala El Verano.wav

     Peak level 100.0 %
     Extraction speed 6.1 X
     Track quality 100.0 %
     Test CRC BD7FE417
     Copy CRC BD7FE417
     Track not present in AccurateRip database
     Copy OK

Track  8

     Filename J:\AUDIO - II\ House (Dream, Techno, Chill, Deep) - Trance - Club\ Nassau Beach Club Ibiza 2CD (2015)\CD2 - Mixed By Dazzia\08. Paul C & Paolo Martini - Bermuda.wav

     Peak level 100.0 %
     Extraction speed 6.6 X
     Track quality 100.0 %
     Test CRC C53F0A94
     Copy CRC C53F0A94
     Track not present in AccurateRip database
     Copy OK

Track  9

     Filename J:\AUDIO - II\ House (Dream, Techno, Chill, Deep) - Trance - Club\ Nassau Beach Club Ibiza 2CD (2015)\CD2 - Mixed By Dazzia\09. Cesar Merveille & Pablo Cahn - Tribute.wav

     Peak level 100.0 %
     Extraction speed 7.2 X
     Track quality 100.0 %
     Test CRC AEC0B42D
     Copy CRC AEC0B42D
     Track not present in AccurateRip database
     Copy OK

Track 10

     Filename J:\AUDIO - II\ House (Dream, Techno, Chill, Deep) - Trance - Club\ Nassau Beach Club Ibiza 2CD (2015)\CD2 - Mixed By Dazzia\10. Namito, Solmaz Lou - Janin.wav

     Peak level 100.0 %
     Extraction speed 7.5 X
     Track quality 100.0 %
     Test CRC AE347F37
     Copy CRC AE347F37
     Track not present in AccurateRip database
     Copy OK

Track 11

     Filename J:\AUDIO - II\ House (Dream, Techno, Chill, Deep) - Trance - Club\ Nassau Beach Club Ibiza 2CD (2015)\CD2 - Mixed By Dazzia\11. Watermat - Bullit.wav

     Peak level 100.0 %
     Extraction speed 7.6 X
     Track quality 100.0 %
     Test CRC 70B4B041
     Copy CRC 70B4B041
     Track not present in AccurateRip database
     Copy OK

Track 12

     Filename J:\AUDIO - II\ House (Dream, Techno, Chill, Deep) - Trance - Club\ Nassau Beach Club Ibiza 2CD (2015)\CD2 - Mixed By Dazzia\12. Gerd Feat. Marcoradi - Still Believe.wav

     Peak level 100.0 %
     Extraction speed 8.0 X
     Track quality 100.0 %
     Test CRC 30BD2860
     Copy CRC 30BD2860
     Track not present in AccurateRip database
     Copy OK

Track 13

     Filename J:\AUDIO - II\ House (Dream, Techno, Chill, Deep) - Trance - Club\ Nassau Beach Club Ibiza 2CD (2015)\CD2 - Mixed By Dazzia\13. Edu Imbernon - Dalt.wav

     Peak level 100.0 %
     Extraction speed 7.0 X
     Track quality 99.9 %
     Test CRC 8041E7A7
     Copy CRC 8041E7A7
     Track not present in AccurateRip database
     Copy OK

Track 14

     Filename J:\AUDIO - II\ House (Dream, Techno, Chill, Deep) - Trance - Club\ Nassau Beach Club Ibiza 2CD (2015)\CD2 - Mixed By Dazzia\14. Richard Grey - Need Your Lovin (MURJD Remix).wav

     Peak level 100.0 %
     Extraction speed 8.0 X
     Track quality 100.0 %
     Test CRC FC023EB9
     Copy CRC FC023EB9
     Track not present in AccurateRip database
     Copy OK

None of the tracks are present in the AccurateRip database

No errors occurred

End of status report

---- CUETools DB Plugin V2.1.4

[CTDB TOCID: lthGzupLpxvstl3xzfkW3oXB8p4-] found
Submit result: lthGzupLpxvstl3xzfkW3oXB8p4- has been confirmed
Track | CTDB Status
  1   | (8/8) Accurately ripped
  2   | (8/8) Accurately ripped
  3   | (8/8) Accurately ripped
  4   | (8/8) Accurately ripped
  5   | (8/8) Accurately ripped
  6   | (8/8) Accurately ripped
  7   | (8/8) Accurately ripped
  8   | (8/8) Accurately ripped
  9   | (8/8) Accurately ripped
 10   | (8/8) Accurately ripped
 11   | (8/8) Accurately ripped
 12   | (8/8) Accurately ripped
 13   | (8/8) Accurately ripped
 14   | (8/8) Accurately ripped

==== Log checksum 4CE84DD0DAD8AE3443777C94CE67A13F55F777855BDFF0161C65765C78CC1FC7 ====
Код:
Код: Выделить всё
-----------------------

DON'T MODIFY THIS FILE

-----------------------

PERFORMER: auCDtect Task Manager, ver. 1.6.0 RC1 build 1.6.0.1
Copyright (c) 2008-2010 y-soft. All rights reserved
http:/y-soft.org

ANALYZER: auCDtect: CD records authenticity detector, version 0.8.2
Copyright (c) 2004 Oleg Berngardt. All rights reserved.
Copyright (c) 2004 Alexander Djourik. All rights reserved.

FILE: 14. Richard Grey - Need Your Lovin (MURJD Remix).flac
  Size: 26390037 Hash: A0201774273F9B78571A0884D0D470A1 Accuracy: -m0
  Conclusion: CDDA 100%
  Signature: D29070BD520E5F8960AE72B20FE3AED20A435E6A
FILE: 13. Edu Imbernon - Dalt.flac
  Size: 39762932 Hash: F8F5A14547F0C3018E91E2CFBD6C9A46 Accuracy: -m0
  Conclusion: MPEG 95%
  Signature: B081455909ECD9EE9027E222E8FAD9CACF033975
FILE: 12. Gerd Feat. Marcoradi - Still Believe.flac
  Size: 47494206 Hash: B3EE57BAF513E6BBE3B294BD68DC99D6 Accuracy: -m0
  Conclusion: MPEG 95%
  Signature: 2C9CD6FFBC73A438037820C14A92FF6C72EEB6ED
FILE: 11. Watermat - Bullit.flac
  Size: 41130844 Hash: 4C59759CA1BE2E95A7756997430EF023 Accuracy: -m0
  Conclusion: MPEG 95%
  Signature: 2C7AF10049AED3F315361DB953B3FB404AC16518
FILE: 10. Namito, Solmaz Lou - Janin.flac
  Size: 44279359 Hash: B8AA85D81515ED713359248F1950DC5D Accuracy: -m0
  Conclusion: MPEG 95%
  Signature: 4FB7D1EA7282F13751D305D36B17858E1105D85C
FILE: 09. Cesar Merveille & Pablo Cahn - Tribute.flac
  Size: 65551698 Hash: 0FCC42EC9BEC3F5CF6A563526ADE4782 Accuracy: -m0
  Conclusion: MPEG 95%
  Signature: 1560F1049756CC2449453126E3CF2568663444EC
FILE: 08. Paul C & Paolo Martini - Bermuda.flac
  Size: 39421515 Hash: 04D30D229EDDC8AFEAA8D8D56C8CBA0C Accuracy: -m0
  Conclusion: MPEG 95%
  Signature: FAC1DD097E1CC9628A516B9C29EE8E5C20CA0700
FILE: 07. Kydus & DJ Dep - Cala El Verano.flac
  Size: 31720468 Hash: D32EEC7F0AF522A77E68B54781D7D832 Accuracy: -m0
  Conclusion: MPEG 95%
  Signature: F0CFBD72EE86D96C12EBB94F0151D08A188A18E8
FILE: 06. West.K Feat. Nathalie - Desire.flac
  Size: 34973277 Hash: A8F13AE7F02C84258689159FE7C73A35 Accuracy: -m0
  Conclusion: MPEG 95%
  Signature: 981EDA6A3131E216F2CFCBCC327729DC074E85B0
FILE: 05. DaZZla - Golden Chyld.flac
  Size: 31261013 Hash: E232EE1BD0C2E2F0C8A471EEB845589C Accuracy: -m0
  Conclusion: MPEG 95%
  Signature: B68253478C2349C904FFF29A2FF3C65E2B51DACD
FILE: 04. Mash - Style Is The Answer.flac
  Size: 42176695 Hash: A181776E8ECAA4AA74E8FF0F65C266FF Accuracy: -m0
  Conclusion: CDDA 100%
  Signature: 976C1B0FBF65F38177E02BB6A0119940800ADE97
FILE: 03. Parra For Cuva Feat. Anna Naklab - Wicked Games.flac
  Size: 33646985 Hash: 70A4278F7BB0CA3AC9DA95D1DCF2A7BD Accuracy: -m0
  Conclusion: MPEG 95%
  Signature: B64FFBB37DFC8B1732175F6897B85D44E6546A31
FILE: 02. Mass Digital - Dayspring.flac
  Size: 42007810 Hash: F0FEB1D4D4CE7AD17FAEE2FD222AFAAA Accuracy: -m0
  Conclusion: MPEG 95%
  Signature: 8D06CF7EDF3A8FD51D2475EC08EC541302F6CF50
FILE: 01. Marlena Shaw - Woman Of The Ghetto (Akshin Alizadeh Remix).flac
  Size: 17008423 Hash: 2B48A3460B84E0B679AA0554DFFBE659 Accuracy: -m0
  Conclusion: MPEG 95%
  Signature: D3A9F2A35ED97938926344F8BA10E2BFCF99FBAB
Код:
Код: Выделить всё
REM GENRE "Deep House"
REM DATE 2015
REM DISCID D612C90E
REM COMMENT "ExactAudioCopy v1.0b4"
CATALOG 4250117649951
PERFORMER "Various Artists"
TITLE "Nassau Beach Club Ibiza 2015 - CD2 - Mixed By Dazzia"
FILE "01. Marlena Shaw - Woman Of The Ghetto (Akshin Alizadeh Remix).wav" WAVE
  TRACK 01 AUDIO
    TITLE "Woman Of The Ghetto (Akshin Alizadeh Remix)"
    PERFORMER "Marlena Shaw"
    ISRC USEAX1401725
    INDEX 01 00:00:00
FILE "02. Mass Digital - Dayspring.wav" WAVE
  TRACK 02 AUDIO
    TITLE "Dayspring"
    PERFORMER "Mass Digital"
    ISRC DEN061401415
    INDEX 01 00:00:00
FILE "03. Parra For Cuva Feat. Anna Naklab - Wicked Games.wav" WAVE
  TRACK 03 AUDIO
    TITLE "Wicked Games"
    PERFORMER "Parra For Cuva Feat. Anna Naklab"
    ISRC NLZ541300616
    INDEX 01 00:00:00
FILE "04. Mash - Style Is The Answer.wav" WAVE
  TRACK 04 AUDIO
    TITLE "Style Is The Answer"
    PERFORMER "Mash"
    ISRC GBPQS1200013
    INDEX 01 00:00:00
FILE "05. DaZZla - Golden Chyld.wav" WAVE
  TRACK 05 AUDIO
    TITLE "Golden Chyld"
    PERFORMER "DaZZla"
    INDEX 01 00:00:00
FILE "06. West.K Feat. Nathalie - Desire.wav" WAVE
  TRACK 06 AUDIO
    TITLE "Desire"
    PERFORMER "West.K Feat. Nathalie"
    ISRC GBENT1330151
    INDEX 01 00:00:00
FILE "07. Kydus & DJ Dep - Cala El Verano.wav" WAVE
  TRACK 07 AUDIO
    TITLE "Cala El Verano"
    PERFORMER "Kydus & DJ Dep"
    ISRC GBSCL1413028
    INDEX 01 00:00:00
FILE "08. Paul C & Paolo Martini - Bermuda.wav" WAVE
  TRACK 08 AUDIO
    TITLE "Bermuda"
    PERFORMER "Paul C & Paolo Martini"
    ISRC DEPI81500116
    INDEX 01 00:00:00
FILE "09. Cesar Merveille & Pablo Cahn - Tribute.wav" WAVE
  TRACK 09 AUDIO
    TITLE "Tribute"
    PERFORMER "Cesar Merveille & Pablo Cahn"
    ISRC CH4480900020
    INDEX 01 00:00:00
FILE "10. Namito, Solmaz Lou - Janin.wav" WAVE
  TRACK 10 AUDIO
    TITLE "Janin"
    PERFORMER "Namito, Solmaz Lou"
    ISRC DEPI81302824
    INDEX 01 00:00:00
FILE "11. Watermat - Bullit.wav" WAVE
  TRACK 11 AUDIO
    TITLE "Bullit"
    PERFORMER "Watermat"
    ISRC FR89P1407350
    INDEX 01 00:00:00
FILE "12. Gerd Feat. Marcoradi - Still Believe.wav" WAVE
  TRACK 12 AUDIO
    TITLE "Still Believe"
    PERFORMER "Gerd Feat. Marcoradi"
    ISRC GBCPZ1407670
    INDEX 01 00:00:00
FILE "13. Edu Imbernon - Dalt.wav" WAVE
  TRACK 13 AUDIO
    TITLE "Dalt"
    PERFORMER "Edu Imbernon"
    INDEX 01 00:00:00
FILE "14. Richard Grey - Need Your Lovin (MURJD Remix).wav" WAVE
  TRACK 14 AUDIO
    TITLE "Need Your Lovin (MURJD Remix)"
    PERFORMER "Richard Grey"
    ISRC ES60A1501484
    INDEX 01 00:00:00




Время раздачи: До пяти скачавших.
 
Не забывайте говорить Спасибо. Не уходите с раздачи!   
Торрент: Зарегистрирован [08 июл 2015, 17:03] Скачать торрент
Скачать торрент
[ Размер 15.49 КБ / Просмотров 25 ]
Статус:
Проверен
 
.torrent скачан: 0 раз
Хэш: 2c80c8d4f261b0d9e5b99fa727761707c3bb7da1
Размер: 1.06 ГБ (1 143 533 035 байт)
Стать Автором раздачи
 
 
Раздал: 0 байт
Скачал: 0 байт
Ратио: Inf.
Сообщения: 188877
Зарегистрирован: 14 июн 2014, 20:46


  • Похожие торренты
    Ответы
    Просмотры
    Последнее сообщение

Вернуться в House, Techno, Electro, Minimal (транзит Lossless)

Ресурс не предоставляет электронные версии произведений, а занимается лишь коллекционированием и каталогизацией ссылок, присылаемых и публикуемых на форуме нашими читателями. Если вы являетесь правообладателем какого-либо представленного материала и не желаете чтобы ссылка на него находилась в нашем каталоге, свяжитесь с нами и мы незамедлительно удалим её. Файлы для обмена на трекере предоставлены пользователями сайта, и администрация не несёт ответственности за их содержание. Просьба не заливать файлы, защищенные авторскими правами, а также файлы нелегального содержания!
cron