Под куполом / Under the Dome (2015) WEB-DL [H.264] (Сезон 3, серии 1-3 из 13) LostFilm [MP4|1280x720]

 
 Статистика раздачи 
Размер: 3.7 ГБ   |  Зарегистрирован: 06 июл 2015, 16:06   |   .torrent скачан: 0 раз
Сидеров: 1  [ 0 байт/сек ]     Личеров: 1  [ 0 байт/сек ]  
  

Под куполом / Under the Dome (2015) WEB-DL [H.264] (Сезон 3, серии 1-3 из 13) LostFilm [MP4|1280x720]

Сообщение bagouser » 06 июл 2015, 16:06

Под куполом / Under the Dome (2015) WEB-DL (Сезон 3, серии 1-3 из 13) LostFilm
«They are all trapped inside»

Производство: США
Жанр: фантастика, триллер, драма, детектив

Режиссер: Дэвид Барретт, Питер Год
Актеры: Майк Фогель, Рашель Лефевр, Александр Кох, Маккензи Линтц, Дин Норрис, Колин Форд, Эдди Кэхилл, Макс Эрих, Дэвид Пасха, Карла Кром, Грейс Виктория Кокс и др.

Описание:
Сериал основан на одноименном романе Стивена Кинга.
В центре сюжета сериала находится небольшой американский городок под названием Честерс Милл, находящийся в штате Мэн. В один обычный ничего не предвещающий день, жители городка оказываются полностью отрезаны от всего остального мира невидимым силовым куполом.
В третьем сезоне героям предстоит узнать, в чем заключается предназначение купола и что ему нужно от жителей Честерс-Милла.



Продолжительность: ~00:43:00 серия
Качество видео: WEB-DLRip 720p
Перевод: Многоголосый закадровый, профессиональный - LostFilm
Озвучка: Студия «LostFilm»

Видео: AVC/H.264, 1280x720 (16:9), ~4000 Кбит/сек
Аудио: AAC, 2 канала, 250 Кбит/сек - русский (многоголосый закадровый, LostFilm)
Код:
Код: Выделить всё
Полное имя                               : E:\Under_the_Dome_s3_WEB-DL720p_x264_LostFilm_[NNM-CLUB]\Under.the.Dome.S03E01E02.720p.WEB.rus.LostFilm.TV.mp4
Формат                                   : MPEG-4
Профиль формата                          : Base Media
Идентификатор кодека                     : isom
Размер файла                             : 2,46 Гбайт
Продолжительность                        : 1 ч. 23 м.
Режим общего битрейта                    : Переменный
Общий поток                              : 4228 Кбит/сек
Коллекция                                : Под куполом
Сезон                                    : 3
Альбом                                   : Под куполом, Сезон 3
Альбом/Исполнитель                       : Под куполом
Часть                                    : 1
Часть/Положение                          : 3
Трек                                     : Идите дальше/А я останусь
Трек/Положение                           : 1
Исполнитель                              : Под куполом
Жанр                                     : Sci-Fi & Fantasy
Описание                                 : В результате загадочного явления силовой купол отрезает жителей города от остального мира. Паника приводит к ужасающим последствиям. Потерявшие надежду на спасение люди следуют жесткому принципу самосохранения "каждый сам за себя".
Дата записи                              : 2015
Дата кодирования                         : UTC 2015-06-27 19:25:27
Дата пометки                             : UTC 2015-06-27 19:25:27
Программа кодирования                    : Yamb 2.1.0.0 [http:/yamb.unite-video.com]
Примечание                               : В результате загадочного явления силовой купол отрезает жителей города от остального мира. Паника приводит к ужасающим последствиям. Потерявшие надежду на спасение люди следуют жесткому принципу самосохранения "каждый сам за себя".
Part_ID                                  : 301-302

Видео
Идентификатор                            : 1
Формат                                   : AVC
Формат/Информация                        : Advanced Video Codec
Профиль формата                          :
Параметр CABAC формата                   : Нет
Параметр ReFrames формата                : 2 кадра
Идентификатор кодека                     : avc1
Идентификатор кодека/Информация          : Advanced Video Coding
Продолжительность                        : 1 ч. 23 м.
Битрейт                                  : 4000 Кбит/сек
Максимальный битрейт                     : 13,5 Мбит/сек
Ширина                                   : 1280 пикселей
Высота                                   : 720 пикселей
Соотношение сторон                       : 16:9
Режим частоты кадров                     : Переменный
Частота кадров                           : 23,976 кадра/сек
Минимальная частота кадров               : 23,974 кадра/сек
Максимальная частота кадров              : 23,981 кадра/сек
Цветовое пространство                    : YUV
Субдискретизация насыщенности            : 4:2:0
Битовая глубина                          : 8 бит
Тип развёртки                            : Прогрессивная
Бит/(Пиксели*Кадры)                      : 0.181
Размер потока                            : 2,31 Гбайт (94%)
Библиотека кодирования                   : x264 core 112 r1834 a51816a
Настройки программы                      : cabac=0 / ref=3 / deblock=1:0:0 / analyse=0x1:0x111 / me=hex / subme=7 / psy=1 / psy_rd=1.00:0.00 / mixed_ref=1 / me_range=16 / chroma_me=1 / trellis=1 / 8x8dct=0 / cqm=0 / deadzone=21,11 / fast_pskip=1 / chroma_qp_offset=-2 / threads=6 / sliced_threads=0 / nr=0 / decimate=1 / interlaced=0 / constrained_intra=0 / bframes=3 / b_pyramid=2 / b_adapt=1 / b_bias=0 / direct=1 / weightb=1 / open_gop=0 / weightp=2 / keyint=250 / keyint_min=25 / scenecut=40 / intra_refresh=0 / rc_lookahead=40 / rc=abr / mbtree=1 / bitrate=4000 / ratetol=1.0 / qcomp=0.60 / qpmin=0 / qpmax=51 / qpstep=4 / vbv_maxrate=5000 / vbv_bufsize=2000 / ip_ratio=1.40 / aq=1:1.00 / nal_hrd=none
Язык                                     : English
Дата пометки                             : UTC 2015-06-27 19:26:43
Основные цвета                           : BT.709
Характеристики трансфера                 : BT.709
Коэффициенты матрицы                     : BT.709

Аудио
Идентификатор                            : 2
Формат                                   : AAC
Формат/Информация                        : Advanced Audio Codec
Профиль формата                          : LC
Идентификатор кодека                     : 40
Продолжительность                        : 1 ч. 23 м.
Вид битрейта                             : Переменный
Битрейт                                  : 249 Кбит/сек
Максимальный битрейт                     : 313 Кбит/сек
Каналы                                   : 2 канала
Расположение каналов                     : Front: L R
Частота                                  : 48,0 КГц
Метод сжатия                             : С потерями
Размер потока                            : 148 Мбайт (6%)
Дата кодирования                         : UTC 2015-06-27 19:26:40
Дата пометки                             : UTC 2015-06-27 19:26:43
01 - Идите дальше / Move On
02 - А я останусь / But I'm Not
03 - Возвращение / Redux
Внимание! Раздача ведётся путём добавления новых серий; при каждом добавлении создаётся новый торрент.
Чтобы начать докачку новой серии, пользователям необходимо сделать следующее:
1. Остановить скачивание;
2. Удалить старый торрент у себя из клиента (старые серии удалять не надо);
3. Скачать новый торрент и запустить его у себя в клиенте вместо старого, при этом указать клиенту путь в старую папку куда и должно происходить скачивание новых серий. Ваш клиент при этом должен произвести хеширование (проверку) старой папки и будет докачивать только те серии, которых у вас ещё нет. Старые серии при этом не удаляются, а продолжают раздаваться! Eсли вы уже удалили старые серии, то предотвратить повторную закачку старых серий можно, отжав галочку в соответствующих местах при запуске нового торрента.

Скриншоты:




Время раздачи:
24/7 - круглосуточно
(до первых 5-ти сидов - потом по возможности)

 
Не забывайте говорить Спасибо. Не уходите с раздачи!   
Торрент: Зарегистрирован [06 июл 2015, 16:06] Для скачивания .torrent
необходима регистрация
Или скачать с помощью
MediaGet
Статус:
Проверен
 
.torrent скачан: 0 раз
Хэш: 2c700706f3299c02921b22cf638dbaebe54e581f
Размер: 3.7 ГБ (3 975 508 351 байт)
Стать Автором раздачи
 
Аватара пользователя
 
Раздал: 3.77 ТБ
Скачал: 406.3 ГБ
Ратио: 9.496
Сообщения: 468702
Зарегистрирован: 20 янв 2011, 21:15


  • Похожие торренты
    Ответы
    Просмотры
    Последнее сообщение

Вернуться в Видео для мобильных устройств

Ресурс не предоставляет электронные версии произведений, а занимается лишь коллекционированием и каталогизацией ссылок, присылаемых и публикуемых на форуме нашими читателями. Если вы являетесь правообладателем какого-либо представленного материала и не желаете чтобы ссылка на него находилась в нашем каталоге, свяжитесь с нами и мы незамедлительно удалим её. Файлы для обмена на трекере предоставлены пользователями сайта, и администрация не несёт ответственности за их содержание. Просьба не заливать файлы, защищенные авторскими правами, а также файлы нелегального содержания!
cron