Animal Planet. Большие и страшные / Biggest and Baddest (2014) HDTV [H.264/720p] [Сезон 2, Серии 1-6 из 6]

 
 Статистика раздачи 
Размер: 7.74 ГБ   |  Зарегистрирован: 06 июл 2015, 00:39   |   .torrent скачан: 0 раз
Сидеров: 1  [ 0 байт/сек ]     Личеров: 0  [ 0 байт/сек ]  
  

Animal Planet. Большие и страшные / Biggest and Baddest (2014) HDTV [H.264/720p] [Сезон 2, Серии 1-6 из 6]

Сообщение Seepas » 06 июл 2015, 00:39

Animal Planet. Большие и страшные / Biggest and Baddest (2014) HDTV

Телекомпания: Канада, The Canadian or Video Production Tax Credit
Жанр: Документальный, Телепередача

Участники: Питер фон Путкаймер

Описание:
Отважный биолог Найл МакКенн бесстрашно идет навстречу опасности, чтобы рассказать вам о самых свирепых животных мира. Найл МакКенн хочет выяснить все, что мы должны знать о самых больших и опасных животных. От азиатских джунглей до австралийских болот к самым опасным их обитателям Найл МакКенн подберется максимально близко.

Продолжительность: Серия по ~00:44:00
Качество видео: HDTVRip

Перевод: Одноголосый закадровый, профессиональный

Видео: AVC/H.264, 1280x720, ~4000 Кбит/сек
Аудио: MP2, 2 ch, 192 Кбит/сек
Код:
Код: Выделить всё
Общее
Уникальный идентификатор                 : 391407371697012860896880516210346642 (0x4B61DF93A61B0E353A5BD1F31FCA92)
Формат                                   : Matroska
Версия формата                           : Version 2
Размер файла                             : 1,29 Гбайт
Продолжительность                        : 44 м.
Режим общего битрейта                    : Переменный
Общий поток                              : 4195 Кбит/сек

Видео
Идентификатор                            : 1
Формат                                   : AVC
Формат/Информация                        : Advanced Video Codec
Профиль формата                          :
Параметр CABAC формата                   : Да
Параметр ReFrames формата                : 3 кадра
Параметр GOP формата                     : M=3, N=33
Идентификатор кодека                     : V_MPEG4/ISO/AVC
Продолжительность                        : 44 м.
Вид битрейта                             : Переменный
Битрейт                                  : 3920 Кбит/сек
Максимальный битрейт                     : 4000 Кбит/сек
Ширина                                   : 1280 пикселей
Высота                                   : 720 пикселей
Соотношение сторон                       : 16:9
Режим частоты кадров                     : Постоянный
Частота кадров                           : 30,000 кадров/сек
Стандарт вещания                         : NTSC
Цветовое пространство                    : YUV
Субдискретизация насыщенности            : 4:2:0
Битовая глубина                          : 8 бит
Тип развёртки                            : Прогрессивная
Бит/(Пиксели*Кадры)                      : 0.142
Размер потока                            : 1,20 Гбайт (93%)

Аудио
Идентификатор                            : 2
Формат                                   : MPEG Audio
Версия формата                           : Version 1
Профиль формата                          : Layer 2
Идентификатор кодека                     : A_MPEG/L2
Идентификатор кодека/Подсказка           : MP2
Продолжительность                        : 44 м.
Вид битрейта                             : Постоянный
Битрейт                                  : 192 Кбит/сек
Каналы                                   : 2 канала
Частота                                  : 48,0 КГц
Метод сжатия                             : С потерями
Размер потока                            : 60,4 Мбайт (5%)
Язык                                     : English

Скриншоты:



Первый сезон
Первый сезон, 1080p
Второй сезон
Время раздачи: до 5 скачавших
 
Не забывайте говорить Спасибо. Не уходите с раздачи!   
Торрент: Зарегистрирован [06 июл 2015, 00:39] Для скачивания .torrent
необходима регистрация
Или скачать с помощью
MediaGet
Статус:
Проверен
 
.torrent скачан: 0 раз
Хэш: 1523eb8991a835b61c7aaa462e4d48f9697f407e
Размер: 7.74 ГБ (8 306 840 404 байт)
Стать Автором раздачи
 
 
Раздал: 0 байт
Скачал: 0 байт
Ратио: Inf.
Сообщения: 188930
Зарегистрирован: 14 июн 2014, 20:46


  • Похожие торренты
    Ответы
    Просмотры
    Последнее сообщение

Вернуться в Animal Planet

Кто сейчас на конференции

Сейчас эту тему просматривают: нет зарегистрированных пользователей и гости: 1

Ресурс не предоставляет электронные версии произведений, а занимается лишь коллекционированием и каталогизацией ссылок, присылаемых и публикуемых на форуме нашими читателями. Если вы являетесь правообладателем какого-либо представленного материала и не желаете чтобы ссылка на него находилась в нашем каталоге, свяжитесь с нами и мы незамедлительно удалим её. Файлы для обмена на трекере предоставлены пользователями сайта, и администрация не несёт ответственности за их содержание. Просьба не заливать файлы, защищенные авторскими правами, а также файлы нелегального содержания!