Animal Planet. Королева львов / The Lion Queen (2015) HDTVRip [Серии 1-6 из 6]

 
 Статистика раздачи 
Размер: 3.16 ГБ   |  Зарегистрирован: 05 июл 2015, 17:49   |   .torrent скачан: 1 раз
Сидеров: 1  [ 0 байт/сек ]     Личеров: 0  [ 0 байт/сек ]  
  

Animal Planet. Королева львов / The Lion Queen (2015) HDTVRip [Серии 1-6 из 6]

Сообщение bagouser » 05 июл 2015, 17:49

Animal Planet. Королева львов / The Lion Queen (2015) HDTVRip

Телекомпания: США, Animal Planet
Жанр: Документальный, Телепередача

Описание:
Не имея никакого опыта работы с хищниками, Энди Райв уехала из города и посвятила свою жизнь львам. Теперь она рассказывает людям о животных, находящихся на грани вымирания.

Продолжительность: Серия по ~00:44:00
Качество видео: HDTVRip

Перевод: Одноголосый закадровый, профессиональный

Видео: Xvid, 720x400, ~1521 Кбит/сек
Аудио: AC3, 2 ch, 192 Кбит/cек
Код:
Код: Выделить всё
Общее
Формат                                   : AVI
Формат/Информация                        : Audio Video Interleave
Размер файла                             : 538 Мбайт
Продолжительность                        : 43 м.
Общий поток                              : 1725 Кбит/сек
Программа кодирования                    : VirtualDubMod 1.5.10.3 | [url=http://www.virtualdub-fr.org]www.virtualdub-fr.org[/url] || (build 2550/release)
Библиотека кодирования                   : VirtualDubMod build 2550/release

Видео
Идентификатор                            : 0
Формат                                   : MPEG-4 Visual
Профиль формата                          : Advanced [email protected]
Параметр BVOP формата                    : 1
Параметр QPel формата                    : Нет
Параметр GMC формата                     : Без точки перехода
Параметр матрицы формата                 : Default (H.263)
Идентификатор кодека                     : XVID
Идентификатор кодека/Подсказка           : XviD
Продолжительность                        : 43 м.
Битрейт                                  : 1522 Кбит/сек
Ширина                                   : 720 пикселей
Высота                                   : 400 пикселей
Соотношение сторон                       : 16:9
Частота кадров                           : 30,000 кадров/сек
Цветовое пространство                    : YUV
Субдискретизация насыщенности            : 4:2:0
Битовая глубина                          : 8 бит
Тип развёртки                            : Прогрессивная
Метод сжатия                             : С потерями
Бит/(Пиксели*Кадры)                      : 0.176
Размер потока                            : 475 Мбайт (88%)
Библиотека кодирования                   : XviD 1.2.1 (UTC 2008-12-04)

Аудио
Идентификатор                            : 1
Формат                                   : AC-3
Формат/Информация                        : Audio Coding 3
Расширение режима                        : CM (complete main)
Параметр Endianness формата              : Big
Идентификатор кодека                     : 2000
Продолжительность                        : 43 м.
Вид битрейта                             : Постоянный
Битрейт                                  : 192 Кбит/сек
Каналы                                   : 2 канала
Расположение каналов                     : Front: L R
Частота                                  : 48,0 КГц
Метод сжатия                             : С потерями
Размер потока                            : 59,9 Мбайт (11%)
Выравнивание                             : Разделение по промежуткам
Продолжительность промежутка             : 33  мс. (1,00 видеокадр)
Время предзагрузки промежутка            : 500  мс.

Скриншоты:



Время раздачи: до 5 скачавших
 
Не забывайте говорить Спасибо. Не уходите с раздачи!   
Торрент: Зарегистрирован [05 июл 2015, 17:49] Для скачивания .torrent
необходима регистрация
Или скачать с помощью
MediaGet
Статус:
Проверен
 
.torrent скачан: 1 раз
Хэш: 012797e82ea3a76608afcb8ffb7b024a43411885
Размер: 3.16 ГБ (3 390 826 496 байт)
Стать Автором раздачи
 
Аватара пользователя
 
Раздал: 3.38 ТБ
Скачал: 401.96 ГБ
Ратио: 8.612
Сообщения: 468458
Зарегистрирован: 20 янв 2011, 21:15


  • Похожие торренты
    Ответы
    Просмотры
    Последнее сообщение

Вернуться в Animal Planet

Кто сейчас на конференции

Сейчас эту тему просматривают: нет зарегистрированных пользователей и гости: 1

Ресурс не предоставляет электронные версии произведений, а занимается лишь коллекционированием и каталогизацией ссылок, присылаемых и публикуемых на форуме нашими читателями. Если вы являетесь правообладателем какого-либо представленного материала и не желаете чтобы ссылка на него находилась в нашем каталоге, свяжитесь с нами и мы незамедлительно удалим её. Файлы для обмена на трекере предоставлены пользователями сайта, и администрация не несёт ответственности за их содержание. Просьба не заливать файлы, защищенные авторскими правами, а также файлы нелегального содержания!