Melanie Martinez - Carousel (2014) WEB-DL [1080p-HQ]

 
 Статистика раздачи 
Размер: 994.68 МБ   |  Зарегистрирован: 05 июл 2015, 17:07   |   .torrent скачан: 0 раз
Сидеров: 1  [ 0 байт/сек ]     Личеров: 0  [ 0 байт/сек ]  
  

Melanie Martinez - Carousel (2014) WEB-DL [1080p-HQ]

Сообщение bagouser » 05 июл 2015, 17:07

Melanie Martinez - Carousel (2014) WEB-DL [1080p-HQ]

Исполнитель: Melanie Martinez
Год выпуска: 2014
Жанр: Indie-Pop
Описание:
Официальное видео Carousel, Нью-Йоркской Инди-Поп певицы Melanie Martinez. Данный сингл был саундтреком к четвертому сезону сериала "Американские ужасы".
P.S. Если кто умеет работать с данным форматом напишите в л.с.

Продолжительность: 00:03:50
Качество видео: WEB-DL

Видеокодек: ProRes
Битрейт видео: 34.7 Mbps
Размер кадра: 1920x1080
Аудиокодек: PCM, 2ch
Битрейт аудио: 1 536 Kbps
Код:
Код: Выделить всё
General
Complete name                  : P:\КЛИПЫ\Melanie Martinez - Carousel.mov
Format                         : QuickTime
Format/Info                    : Original Apple specifications
File size                      : 995 MiB
Duration                       : 3mn 50s
Overall bit rate mode          : Variable
Overall bit rate               : 36.2 Mbps
Encoded date                   : UTC 2014-10-11 23:14:22
Tagged date                    : UTC 2014-10-11 23:15:04
Writing library                : Apple QuickTime

Video
ID                             : 1
Format                         : ProRes
Format version                 : Version 0
Format profile                 : Proxy
Codec ID                       : apco
Duration                       : 3mn 50s
Bit rate mode                  : Variable
Bit rate                       : 34.7 Mbps
Width                          : 1 920 pixels
Height                         : 1 080 pixels
Display aspect ratio           : 16:9
Frame rate mode                : Constant
Frame rate                     : 23.976 fps
Color space                    : YUV
Chroma subsampling             : 4:2:2
Scan type                      : Progressive
Bits/(Pixel*Frame)             : 0.698
Stream size                    : 952 MiB (96%)
Writing library                : Apple
Language                       : English
Encoded date                   : UTC 2014-10-11 23:14:22
Tagged date                    : UTC 2014-10-11 23:15:04
Matrix coefficients            : BT.709

Audio
ID                             : 2
Format                         : PCM
Format settings, Endianness    : Big
Format settings, Sign          : Signed
Codec ID                       : twos
Duration                       : 3mn 50s
Bit rate mode                  : Constant
Bit rate                       : 1 536 Kbps
Channel(s)                     : 2 channels
Sampling rate                  : 48.0 KHz
Bit depth                      : 16 bits
Stream size                    : 42.2 MiB (4%)
Language                       : English
Encoded date                   : UTC 2014-10-11 23:14:22
Tagged date                    : UTC 2014-10-11 23:15:04

Скриншоты:



Время раздачи: Всегда
 
Не забывайте говорить Спасибо. Не уходите с раздачи!   
Торрент: Зарегистрирован [05 июл 2015, 17:07] Скачать торрент
Скачать торрент
[ Размер 20.1 КБ / Просмотров 45 ]
Статус:
Проверен
 
.torrent скачан: 0 раз
Хэш: 0e09270f133afa2d4e80acb3e2a15f22d6c7989c
Размер: 994.68 МБ (1 042 992 984 байт)
Стать Автором раздачи
 
Аватара пользователя
 
Раздал: 3.77 ТБ
Скачал: 406.3 ГБ
Ратио: 9.496
Сообщения: 468710
Зарегистрирован: 20 янв 2011, 21:15


  • Похожие торренты
    Ответы
    Просмотры
    Последнее сообщение

Вернуться в Музыкальные клипы (транзит)

Ресурс не предоставляет электронные версии произведений, а занимается лишь коллекционированием и каталогизацией ссылок, присылаемых и публикуемых на форуме нашими читателями. Если вы являетесь правообладателем какого-либо представленного материала и не желаете чтобы ссылка на него находилась в нашем каталоге, свяжитесь с нами и мы незамедлительно удалим её. Файлы для обмена на трекере предоставлены пользователями сайта, и администрация не несёт ответственности за их содержание. Просьба не заливать файлы, защищенные авторскими правами, а также файлы нелегального содержания!
cron