Грошовые ужасы / Страшные сказки / Penny Dreadful (2015) HDTVRip [H.264] (Сезон 2, серии 1-9 из 10) BaibaKo [MP4|720x400]

 
 Статистика раздачи 
Размер: 6.35 ГБ   |  Зарегистрирован: 01 июл 2015, 00:01   |   .torrent скачан: 0 раз
Сидеров: 1  [ 0 байт/сек ]     Личеров: 0  [ 0 байт/сек ]  
  

Грошовые ужасы / Страшные сказки / Penny Dreadful (2015) HDTVRip [H.264] (Сезон 2, серии 1-9 из 10) BaibaKo [MP4|720x400]

Сообщение bagouser » 01 июл 2015, 00:01

Грошовые ужасы / Penny Dreadful (2015) HDTVRip (Сезон 2, серии 1-9 из 10) BaibaKo
«There is some thing within us all»

Производство: США, Ирландия, Великобритания
Жанр: Ужасы, триллер

Режиссер: Х.А. Байона, Дирбла Уолш, Сэм Мендес
Актеры: Тимоти Далтон, Ева Грин, Джош Хартнетт, Рори Киннер, Хелен МакКрори, Билли Пайпер, Гарри Тредэвэй, Рив Карни, Алан Армстронг, Рик Берн и др.

Описание:
Викторианский Лондон. Здесь никогда не было безопасности и спокойствия. Горожане заняты исключительно повседневными делами, не замечая признаков грядущих изменений. Однако им следовало бы стать повнимательней, потому что на улицах британской столицы собирается нечисть самого разного толка, способная навести ужас на кого угодно. Со многими из представителей этой нечисти вы давно знакомы: тут вам и демонический юноша Дориан Грей из романа Оскара Уайльда, и многомудрый доктор Джекил вместе со своим альтер-эго мистером Хайдом, и немец Франкенштейн «под ручку» со своим чудовищным творением, и жаждущий крови великолепный граф Дракула из Трансильвании, а также его подручные-вампиры и другие, не менее зловещие сущности.

Начиная охоту за человеческими телами и душами, все они делят Лондон между собой. Люди боятся выходить из домов, а тёмные негодяи попросту развлекаются, не раздумывая о том, что рано или поздно должна прийти расплата за все их злодеяния. И вот об этой беде узнают охотники, всю свою жизнь посвятившие борьбе с нечистью. В числе положительных персонажей, разумеется, отметится и сам Ван Хельсинг.

Но и без главного персонажа сюжет не обходится. Им стал одиночка, приехавший из Америки — Итан Чэндлер. Его угораздило угодить в ловушку коварных вампиров и стать одержимым дьявольской красотой загадочной женщины-медиума Ванессы Айвз. В итоге жанр шоу определяется его авторами как «психосексуальный хоррор», а это звучит как нечто доселе совершенно неизвестное, новое и очень интересное.



Продолжительность: ~00:54:00 серия
Качество видео: WEB-DLRip
Перевод: Многоголосый закадровый, профессиональный - BaibaKo
Автор перевода: vipere
Озвучка: Юлия Котурбаш, Anna_Smile, Олекса Мельник и Акмал Гурезов
Монтаж: Виталий Мартыняк
Особая благодарность amishaa за помощь в подготовке релиза!

Видео: AVC/H.264, 720x400 (16:9), ~1536 Кбит/сек
Аудио #1: AAC, 2 канала, 163 Кбит/сек - русский (многоголосый закадровый, BaibaKo)
Аудио #2: AAC, 2 канала, 163 Кбит/сек - английский (оригинальный)
Код:
Код: Выделить всё
Полное имя                               : D:\Penny_Dreadful_s2_HDTVRip_x264_BaibaKo_[NNM-CLUB]\Penny.Dreadful.s02e01.HDTVRip.x264.Rus.Eng.BaibaKo.tv.mp4
Формат                                   : MPEG-4
Профиль формата                          : Base Media
Идентификатор кодека                     : isom
Размер файла                             : 732 Мбайт
Продолжительность                        : 54 м.
Режим общего битрейта                    : Переменный
Общий поток                              : 1866 Кбит/сек
Дата кодирования                         : UTC 2015-04-20 22:13:45
Дата пометки                             : UTC 2015-04-20 22:13:45

Видео
Идентификатор                            : 1
Формат                                   : AVC
Формат/Информация                        : Advanced Video Codec
Профиль формата                          :
Параметр CABAC формата                   : Нет
Параметр ReFrames формата                : 3 кадра
Идентификатор кодека                     : avc1
Идентификатор кодека/Информация          : Advanced Video Coding
Продолжительность                        : 54 м.
Битрейт                                  : 1536 Кбит/сек
Максимальный битрейт                     : 8768 Кбит/сек
Ширина                                   : 720 пикселей
Высота                                   : 400 пикселей
Соотношение сторон                       : 16:9
Режим частоты кадров                     : Переменный
Частота кадров                           : 23,976 кадра/сек
Минимальная частота кадров               : 23,974 кадра/сек
Максимальная частота кадров              : 23,981 кадра/сек
Цветовое пространство                    : YUV
Субдискретизация насыщенности            : 4:2:0
Битовая глубина                          : 8 бит
Тип развёртки                            : Прогрессивная
Бит/(Пиксели*Кадры)                      : 0.222
Размер потока                            : 602 Мбайт (82%)
Библиотека кодирования                   : x264 core 142 r2479 dd79a61
Настройки программы                      : cabac=0 / ref=3 / deblock=1:0:0 / analyse=0x1:0x111 / me=hex / subme=7 / psy=1 / psy_rd=1.00:0.00 / mixed_ref=1 / me_range=16 / chroma_me=1 / trellis=1 / 8x8dct=0 / cqm=0 / deadzone=21,11 / fast_pskip=1 / chroma_qp_offset=-2 / threads=12 / lookahead_threads=2 / sliced_threads=0 / nr=0 / decimate=1 / interlaced=0 / bluray_compat=0 / constrained_intra=0 / bframes=0 / weightp=0 / keyint=240 / keyint_min=24 / scenecut=40 / intra_refresh=0 / rc_lookahead=40 / rc=2pass / mbtree=1 / bitrate=1536 / ratetol=1.0 / qcomp=0.60 / qpmin=0 / qpmax=69 / qpstep=4 / cplxblur=20.0 / qblur=0.5 / vbv_maxrate=10000 / vbv_bufsize=10000 / nal_hrd=none / filler=0 / ip_ratio=1.40 / aq=1:1.00
Дата пометки                             : UTC 2015-04-20 22:14:13
Основные цвета                           : BT.709
Характеристики трансфера                 : BT.709
Коэффициенты матрицы                     : BT.709

Аудио #1
Идентификатор                            : 2
Формат                                   : AAC
Формат/Информация                        : Advanced Audio Codec
Профиль формата                          : LC
Идентификатор кодека                     : 40
Продолжительность                        : 54 м.
Вид битрейта                             : Переменный
Битрейт                                  : 163 Кбит/сек
Максимальный битрейт                     : 228 Кбит/сек
Каналы                                   : 2 канала
Расположение каналов                     : Front: L R
Частота                                  : 48,0 КГц
Метод сжатия                             : С потерями
Размер потока                            : 63,8 Мбайт (9%)
Язык                                     : Russian
Дата кодирования                         : UTC 2015-04-20 22:14:05
Дата пометки                             : UTC 2015-04-20 22:14:13

Аудио #2
Идентификатор                            : 3
Формат                                   : AAC
Формат/Информация                        : Advanced Audio Codec
Профиль формата                          : LC
Идентификатор кодека                     : 40
Продолжительность                        : 54 м.
Вид битрейта                             : Переменный
Битрейт                                  : 163 Кбит/сек
Максимальный битрейт                     : 229 Кбит/сек
Каналы                                   : 2 канала
Расположение каналов                     : Front: L R
Частота                                  : 48,0 КГц
Метод сжатия                             : С потерями
Размер потока                            : 63,8 Мбайт (9%)
Язык                                     : English
Дата кодирования                         : UTC 2015-04-20 22:14:09
Дата пометки                             : UTC 2015-04-20 22:14:13
01 - Сущий ад / Fresh Hell
02 - Язык Дьявола / Verbis Diablo
03 - Ночные пришельцы
04 - Духи злобы поднебесной
05 - Выше небосвода
06 - Славные ужасы
07 - Маленький скорпион
08 - Memento Mori
Внимание! Раздача ведётся путём добавления новых серий; при каждом добавлении создаётся новый торрент.
Чтобы начать докачку новой серии, пользователям необходимо сделать следующее:
1. Остановить скачивание;
2. Удалить старый торрент у себя из клиента (старые серии удалять не надо);
3. Скачать новый торрент и запустить его у себя в клиенте вместо старого, при этом указать клиенту путь в старую папку куда и должно происходить скачивание новых серий. Ваш клиент при этом должен произвести хеширование (проверку) старой папки и будет докачивать только те серии, которых у вас ещё нет. Старые серии при этом не удаляются, а продолжают раздаваться! Eсли вы уже удалили старые серии, то предотвратить повторную закачку старых серий можно, отжав галочку в соответствующих местах при запуске нового торрента.
Скриншоты:




Время раздачи:
24/7 - круглосуточно
(до первых 5-ти сидов - потом по возможности)

 
Не забывайте говорить Спасибо. Не уходите с раздачи!   
Торрент: Зарегистрирован [01 июл 2015, 00:01] Для скачивания .torrent
необходима регистрация
Или скачать с помощью
MediaGet
Статус:
Проверен
 
.torrent скачан: 0 раз
Хэш: 8aa065558dd29d2206d96c7b158220ca77697c66
Размер: 6.35 ГБ (6 814 223 437 байт)
Стать Автором раздачи
 
Аватара пользователя
 
Раздал: 3.77 ТБ
Скачал: 406.3 ГБ
Ратио: 9.496
Сообщения: 468702
Зарегистрирован: 20 янв 2011, 21:15


  • Похожие торренты
    Ответы
    Просмотры
    Последнее сообщение

Вернуться в Видео для мобильных устройств

Ресурс не предоставляет электронные версии произведений, а занимается лишь коллекционированием и каталогизацией ссылок, присылаемых и публикуемых на форуме нашими читателями. Если вы являетесь правообладателем какого-либо представленного материала и не желаете чтобы ссылка на него находилась в нашем каталоге, свяжитесь с нами и мы незамедлительно удалим её. Файлы для обмена на трекере предоставлены пользователями сайта, и администрация не несёт ответственности за их содержание. Просьба не заливать файлы, защищенные авторскими правами, а также файлы нелегального содержания!
cron