Animal Planet. Загадочные животные острова Джао / The Secret Creatures of Jao (2009) HDTVRip [H.264/720p] [Серии 1-7 из 7]

 
 Статистика раздачи 
Размер: 4.84 ГБ   |  Зарегистрирован: 29 июн 2015, 15:58   |   .torrent скачан: 0 раз
Сидеров: 1  [ 0 байт/сек ]     Личеров: 0  [ 0 байт/сек ]  
  

Animal Planet. Загадочные животные острова Джао / The Secret Creatures of Jao (2009) HDTVRip [H.264/720p] [Серии 1-7 из 7]

Сообщение Satch » 29 июн 2015, 15:58

Animal Planet. Загадочные животные острова Джао / The Secret Creatures of Jao (2009) HDTVRip

Телекомпания: Animal Planet
Производство: ЮАР, Aquavision TV Productions
Жанр: Документальный

Режиссер: Питер Ламберти

Описание:
В Ботсване, в самом сердце дельты реки Окаванго, в окружении паводковых вод, лежит райский остров Джао. Смешение суши и трясины, которое питает своих обитателей, при этом удерживая их в заточении. Это волшебное место, где обитают редкие, загадочные и таинственные существа, благодаря которым мы можем заглянуть в их скрытый мир. Каждый день приносит им новые сложности: удержаться в собственном доме или накормить семью из сорока голодных ртов, найти любовь или спастись из когтей свирепых хищников. Эти маленькие, неуловимые зверьки живут замысловатой и загадочной жизнью, полной испытаний и опасностей. Даже в раю загадочные создания острова Джао вынуждены вести ежедневную борьбу за выживание...

Продолжительность: 00:21:00 серия
Качество видео: HDTVRip

Перевод: Одноголосый закадровый, профессиональный

Видео: AVC/H.264, 1280x720, ~3550 Кбит/с
Аудио: Русский, английский, AC3, 6 ch, 384 Кбит/с, CBR
Код:
Код: Выделить всё
Общее
Уникальный идентификатор                 : 205819406295779635307278989403119711546 (0x9AD7603299C37ABDBEBF9E3B03D8753A)
Полное имя                               : D:\видео\фильмы\The Secret Creatures of Jao\The Secret Creatures of Jao E01 (720p).mkv
Формат                                   : Matroska
Версия формата                           : Version 4 / Version 2
Размер файла                             : 679 Мбайт
Продолжительность                        : 21 м.
Общий поток                              : 4319 Кбит/сек
Название фильма                          : The Secret Creatures of Jao E01
Дата кодирования                         : UTC 2015-06-28 16:29:02
Программа кодирования                    : mkvmerge v7.7.0 ('Six Voices') 64bit built on Feb 28 2015 23:39:33
Библиотека кодирования                   : libebml v1.3.1 + libmatroska v1.4.2

Видео
Идентификатор                            : 1
Формат                                   : AVC
Формат/Информация                        : Advanced Video Codec
Профиль формата                          :
Параметр CABAC формата                   : Да
Параметр ReFrames формата                : 8 кадров
Идентификатор кодека                     : V_MPEG4/ISO/AVC
Продолжительность                        : 21 м.
Битрейт                                  : 3550 Кбит/сек
Ширина                                   : 1280 пикселей
Высота                                   : 720 пикселей
Соотношение сторон                       : 16:9
Режим частоты кадров                     : Постоянный
Частота кадров                           : 25,000 кадров/сек
Цветовое пространство                    : YUV
Субдискретизация насыщенности            : 4:2:0
Битовая глубина                          : 8 бит
Тип развёртки                            : Прогрессивная
Бит/(Пиксели*Кадры)                      : 0.154
Размер потока                            : 545 Мбайт (80%)
Библиотека кодирования                   : x264 core 146 r2538kMod 121396c
Настройки программы                      : cabac=1 / ref=8 / deblock=1:-1:-1 / analyse=0x3:0x133 / me=umh / subme=9 / psy=1 / fade_compensate=0.00 / psy_rd=1.00:0.10 / mixed_ref=1 / me_range=24 / chroma_me=1 / trellis=2 / 8x8dct=1 / cqm=0 / deadzone=21,11 / fast_pskip=1 / chroma_qp_offset=-3 / threads=6 / lookahead_threads=1 / sliced_threads=0 / nr=0 / decimate=1 / interlaced=0 / bluray_compat=0 / constrained_intra=0 / fgo=0 / bframes=8 / b_pyramid=2 / b_adapt=2 / b_bias=0 / direct=3 / weightb=1 / open_gop=0 / weightp=2 / keyint=250 / keyint_min=25 / scenecut=40 / intra_refresh=0 / rc_lookahead=60 / rc=2pass / mbtree=1 / bitrate=3550 / ratetol=1.0 / qcomp=0.60 / qpmin=0 / qpmax=69 / qpstep=4 / cplxblur=20.0 / qblur=0.5 / ip_ratio=1.40 / aq=1:1.00
Default                                  : Да
Forced                                   : Нет

Аудио #1
Идентификатор                            : 2
Формат                                   : AC-3
Формат/Информация                        : Audio Coding 3
Расширение режима                        : CM (complete main)
Параметр Endianness формата              : Big
Идентификатор кодека                     : A_AC3
Продолжительность                        : 21 м.
Вид битрейта                             : Постоянный
Битрейт                                  : 384 Кбит/сек
Каналы                                   : 6 каналов
Расположение каналов                     : Front: L C R, Side: L R, LFE
Частота                                  : 48,0 КГц
Метод сжатия                             : С потерями
Размер потока                            : 60,4 Мбайт (9%)
Заголовок                                : Russian
Язык                                     : Russian
Default                                  : Да
Forced                                   : Нет

Аудио #2
Идентификатор                            : 3
Формат                                   : AC-3
Формат/Информация                        : Audio Coding 3
Расширение режима                        : CM (complete main)
Параметр Endianness формата              : Big
Идентификатор кодека                     : A_AC3
Продолжительность                        : 21 м.
Вид битрейта                             : Постоянный
Битрейт                                  : 384 Кбит/сек
Каналы                                   : 6 каналов
Расположение каналов                     : Front: L C R, Side: L R, LFE
Частота                                  : 48,0 КГц
Метод сжатия                             : С потерями
Размер потока                            : 60,4 Мбайт (9%)
Заголовок                                : English
Язык                                     : English
Default                                  : Нет
Forced                                   : Нет

01 Home Today, Gone Tomorrow / Сегодня в доме, завтра - без дома
02 Table Manners / Столовые манеры
03 Nosy Neighbours / Любопытные соседи
04 A Family Affair / Семейное дело
05 Royal Secrets / Царские секреты
06 Broken Boundaries / Нарушенные границы
07 A Scaled Attack / Змеиная атака

Скриншоты:


Время раздачи: 24/7. До первых 5 скачавших
 
Не забывайте говорить Спасибо. Не уходите с раздачи!   
Торрент: Зарегистрирован [29 июн 2015, 15:58] Для скачивания .torrent
необходима регистрация
Или скачать с помощью
MediaGet
Статус:
Проверен
 
.torrent скачан: 0 раз
Хэш: d6ffb467b04efa3fb98947794af4cb428aa8f2cb
Размер: 4.84 ГБ (5 194 214 348 байт)
Стать Автором раздачи
 
Аватара пользователя
 
Раздал: 2.45 ГБ
Скачал: 15.94 МБ
Ратио: 157.696
Сообщения: 337785
Зарегистрирован: 16 янв 2012, 17:03


  • Похожие торренты
    Ответы
    Просмотры
    Последнее сообщение

Вернуться в Animal Planet

Кто сейчас на конференции

Сейчас эту тему просматривают: нет зарегистрированных пользователей и гости: 1

Ресурс не предоставляет электронные версии произведений, а занимается лишь коллекционированием и каталогизацией ссылок, присылаемых и публикуемых на форуме нашими читателями. Если вы являетесь правообладателем какого-либо представленного материала и не желаете чтобы ссылка на него находилась в нашем каталоге, свяжитесь с нами и мы незамедлительно удалим её. Файлы для обмена на трекере предоставлены пользователями сайта, и администрация не несёт ответственности за их содержание. Просьба не заливать файлы, защищенные авторскими правами, а также файлы нелегального содержания!