Animal Planet. Дома на деревьях / Treehouse Masters (2013-2014) HDTVRip [Сезон 2, Серии 1-12 из 12]

 
 Статистика раздачи 
Размер: 6.37 ГБ   |  Зарегистрирован: 29 июн 2015, 15:42   |   .torrent скачан: 0 раз
Сидеров: 1  [ 0 байт/сек ]     Личеров: 0  [ 0 байт/сек ]  
  

Animal Planet. Дома на деревьях / Treehouse Masters (2013-2014) HDTVRip [Сезон 2, Серии 1-12 из 12]

Сообщение Satch » 29 июн 2015, 15:42

Animal Planet. Дома на деревьях / Treehouse Masters (2013-2014) HDTVRip

Телекомпания: США, Animal Planet
Жанр: Документальный

Участники: Пит Нельсон

Описание:
Сейчас дома на деревьях становятся больше, выше и удивительнее, чем когда-либо раньше. Пит Нельсон - строитель домов на деревьях вместе со своей потрясающей командой ездят по всей стране и строят самые невероятные дома на деревьях, воссоединяя людей с природой.



Продолжительность: Серия по ~00:44:00
Качество видео: HDTVRip

Перевод: Одноголосый закадровый, профессиональный

Видео: Xvid, 720x400, ~1520 Кбит/сек
Аудио: AC3, 2 ch, 192 Кбит/сек
01. Храм приключений
02. Мастерская санты
03. Наблюдательный пост
04. Дом с бабочками
05. Секвойя, уходящая ветвями в небо.
06. Парящий маяк.
07. Высокое искусство
11.Винсент ван Шалаш
12.Летний лагерь на деревьях
Код:
Код: Выделить всё
Общее
Формат                                   : AVI
Формат/Информация                        : Audio Video Interleave
Размер файла                             : 547 Мбайт
Продолжительность                        : 44 м.
Общий поток                              : 1733 Кбит/сек
Программа кодирования                    : VirtualDubMod 1.5.10.3 | [url=http://www.virtualdub-fr.org]www.virtualdub-fr.org[/url] || (build 2550/release)
Библиотека кодирования                   : VirtualDubMod build 2550/release

Видео
Идентификатор                            : 0
Формат                                   : MPEG-4 Visual
Профиль формата                          : Advanced [email protected]
Параметр BVOP формата                    : 2
Параметр QPel формата                    : Нет
Параметр GMC формата                     : Без точки перехода
Параметр матрицы формата                 : Default (H.263)
Идентификатор кодека                     : XVID
Идентификатор кодека/Подсказка           : XviD
Продолжительность                        : 44 м.
Битрейт                                  : 1521 Кбит/сек
Ширина                                   : 720 пикселей
Высота                                   : 400 пикселей
Соотношение сторон                       : 16:9
Частота кадров                           : 50,000 кадров/сек
Цветовое пространство                    : YUV
Субдискретизация насыщенности            : 4:2:0
Битовая глубина                          : 8 бит
Тип развёртки                            : Прогрессивная
Метод сжатия                             : С потерями
Бит/(Пиксели*Кадры)                      : 0.106
Размер потока                            : 480 Мбайт (88%)
Библиотека кодирования                   : XviD 1.2.1 (UTC 2008-12-04)

Аудио
Идентификатор                            : 1
Формат                                   : AC-3
Формат/Информация                        : Audio Coding 3
Расширение режима                        : CM (complete main)
Параметр Endianness формата              : Big
Идентификатор кодека                     : 2000
Продолжительность                        : 44 м.
Вид битрейта                             : Постоянный
Битрейт                                  : 192 Кбит/сек
Каналы                                   : 2 канала
Расположение каналов                     : Front: L R
Частота                                  : 48,0 КГц
Метод сжатия                             : С потерями
Размер потока                            : 60,6 Мбайт (11%)
Выравнивание                             : Разделение по промежуткам
Продолжительность промежутка             : 20  мс. (1,00 видеокадр)
Время предзагрузки промежутка            : 500  мс.

Скриншоты:



Сезон 1
Сезон 3
Сезон 3, 720p
Время раздачи: до 5 скачавших
 
Не забывайте говорить Спасибо. Не уходите с раздачи!   
Торрент: Зарегистрирован [29 июн 2015, 15:42] Для скачивания .torrent
необходима регистрация
Или скачать с помощью
MediaGet
Статус:
Проверен
 
.torrent скачан: 0 раз
Хэш: 3261a88f4c54ea4ed60c3f7260a6fa05604069c1
Размер: 6.37 ГБ (6 835 582 976 байт)
Стать Автором раздачи
 
Аватара пользователя
 
Раздал: 2.45 ГБ
Скачал: 15.94 МБ
Ратио: 157.696
Сообщения: 337785
Зарегистрирован: 16 янв 2012, 17:03


  • Похожие торренты
    Ответы
    Просмотры
    Последнее сообщение

Вернуться в Animal Planet

Кто сейчас на конференции

Сейчас эту тему просматривают: нет зарегистрированных пользователей и гости: 1

Ресурс не предоставляет электронные версии произведений, а занимается лишь коллекционированием и каталогизацией ссылок, присылаемых и публикуемых на форуме нашими читателями. Если вы являетесь правообладателем какого-либо представленного материала и не желаете чтобы ссылка на него находилась в нашем каталоге, свяжитесь с нами и мы незамедлительно удалим её. Файлы для обмена на трекере предоставлены пользователями сайта, и администрация не несёт ответственности за их содержание. Просьба не заливать файлы, защищенные авторскими правами, а также файлы нелегального содержания!