Animal Planet. Дома на деревьях / Treehouse Masters (2013) SATRip [Сезон 1, Серии 1-8 из 8]

 
 Статистика раздачи 
Размер: 4.06 ГБ   |  Зарегистрирован: 29 июн 2015, 15:42   |   .torrent скачан: 0 раз
Сидеров: 1  [ 0 байт/сек ]     Личеров: 0  [ 0 байт/сек ]  
  

Animal Planet. Дома на деревьях / Treehouse Masters (2013) SATRip [Сезон 1, Серии 1-8 из 8]

Сообщение Satch » 29 июн 2015, 15:42

Animal Planet. Дома на деревьях / Treehouse Masters (2013) SATRip

Телекомпания: США, Animal Planet
Жанр: Документальный

Участники: Пит Нельсон

Описание:
Сейчас дома на деревьях становятся больше, выше и удивительнее, чем когда-либо раньше. Пит Нельсон - строитель домов на деревьях вместе со своей потрясающей командой ездят по всей стране и строят самые невероятные дома на деревьях, воссоединяя людей с природой.



Продолжительность: Серия по ~00:44:00
Качество видео: SATRip

Перевод: Одноголосый закадровый, профессиональный

Видео: Xvid, 704x400, ~1520 Кбит/сек
Аудио: MP3, 2 ch, 128 Кбит/сек
1. Бунгало на заднем дворе
Нашим героям нужно расширять жилище, и они зовут на помощь Пита. Ему пришлось непросто: требования менялись каждый день, но Пит сумел подготовить отличный проект гостевого домика.
2. Клуб под навесом
Имея доходы не ниже деревьев на заднем дворе, семейство приглашает Пита строить домик для тусовок. В нём должна быть терраса для барбекю и гостиная, в которой всем хватит места.
3. Приют уставших душ
Писательница пригласила Пита построить уединённый островок для творчества. Он превратил старый кедр в золочёный терем, полный удивительных диковин.
4. Спа-салон под небесами
Бизнесмен нанял Пита построить первый в мире спа-салон на дереве. Над сантехникой пришлось немало потрудиться, но задумка удалась на славу.
5. Двадцатитонное ранчо на дереве
Пара из Техаса просит Пита построить самый большой дом на дереве — целое ранчо. Благо территория позволяет реализовать идею.
6. Любовь витает в воздухе
Молодая пара просит Пита построить им дом, где они смогут отпраздновать свадьбу и провести медовый месяц: уютное гнёздышко в 75 метрах над землёй
7. Пивная на дереве
Питу заказали построить пивоварню. Он соорудил таверну в деревенском стиле, поставил оборудование — но забираться в пивоварню придётся по верёвке.
8. Ирландский коттедж в кельтском стиле
У ирландского семейства есть прекрасное дерево для маленького дома в кельтском стиле. В проекте Пита даже учтён водораспылитель: в Ирландии влажный климат
Код:
Код: Выделить всё
Общее
Формат                                   : AVI
Формат/Информация                        : Audio Video Interleave
Размер файла                             : 521 Мбайт
Продолжительность                        : 44 м.
Режим общего битрейта                    : Переменный
Общий поток                              : 1652 Кбит/сек
Программа кодирования                    : VirtualDubMod 1.5.10.3 | [url=http://www.virtualdub-fr.org]www.virtualdub-fr.org[/url] || (build 2550/release)
Библиотека кодирования                   : VirtualDubMod build 2550/release

Видео
Идентификатор                            : 0
Формат                                   : MPEG-4 Visual
Профиль формата                          : Advanced [email protected]
Параметр BVOP формата                    : 1
Параметр QPel формата                    : Нет
Параметр GMC формата                     : Без точки перехода
Параметр матрицы формата                 : Default (H.263)
Идентификатор кодека                     : XVID
Идентификатор кодека/Подсказка           : XviD
Продолжительность                        : 44 м.
Битрейт                                  : 1517 Кбит/сек
Ширина                                   : 704 пикселя
Высота                                   : 400 пикселей
Соотношение сторон                       : 16:9
Частота кадров                           : 25,000 кадров/сек
Цветовое пространство                    : YUV
Субдискретизация насыщенности            : 4:2:0
Битовая глубина                          : 8 бит
Тип развёртки                            : Прогрессивная
Метод сжатия                             : С потерями
Бит/(Пиксели*Кадры)                      : 0.215
Размер потока                            : 479 Мбайт (92%)
Библиотека кодирования                   : XviD 1.2.1 (UTC 2008-12-04)

Аудио
Идентификатор                            : 1
Формат                                   : MPEG Audio
Версия формата                           : Version 1
Профиль формата                          : Layer 3
Режим                                    : Joint stereo
Расширение режима                        : MS Stereo
Идентификатор кодека                     : 55
Идентификатор кодека/Подсказка           : MP3
Продолжительность                        : 44 м.
Вид битрейта                             : Переменный
Битрейт                                  : 128 Кбит/сек
Каналы                                   : 2 канала
Частота                                  : 44,1 КГц
Метод сжатия                             : С потерями
Размер потока                            : 38,8 Мбайт (7%)
Выравнивание                             : Соединение по промежуткам
Продолжительность промежутка             : 26  мс. (0,65 видеокадр)
Время предзагрузки промежутка            : 543  мс.
Библиотека кодирования                   : LAME3.99
Настройки программы                      : -m j -V 4 -q 2 -lowpass 17 --abr 128

Скриншоты:



Сезон 2
Сезон 3
Сезон 3, 720p
Время раздачи: до 5 скачавших
 
Не забывайте говорить Спасибо. Не уходите с раздачи!   
Торрент: Зарегистрирован [29 июн 2015, 15:42] Для скачивания .torrent
необходима регистрация
Или скачать с помощью
MediaGet
Статус:
Проверен
 
.torrent скачан: 0 раз
Хэш: 4ef5fab14714816742a6e5a17f8928fb6c820b13
Размер: 4.06 ГБ (4 360 001 536 байт)
Стать Автором раздачи
 
Аватара пользователя
 
Раздал: 2.45 ГБ
Скачал: 15.94 МБ
Ратио: 157.696
Сообщения: 337733
Зарегистрирован: 16 янв 2012, 17:03


  • Похожие торренты
    Ответы
    Просмотры
    Последнее сообщение

Вернуться в Animal Planet

Кто сейчас на конференции

Сейчас эту тему просматривают: нет зарегистрированных пользователей и гости: 1

Ресурс не предоставляет электронные версии произведений, а занимается лишь коллекционированием и каталогизацией ссылок, присылаемых и публикуемых на форуме нашими читателями. Если вы являетесь правообладателем какого-либо представленного материала и не желаете чтобы ссылка на него находилась в нашем каталоге, свяжитесь с нами и мы незамедлительно удалим её. Файлы для обмена на трекере предоставлены пользователями сайта, и администрация не несёт ответственности за их содержание. Просьба не заливать файлы, защищенные авторскими правами, а также файлы нелегального содержания!