Вызов / Непокорная Земля / Defiance (2015) WEB-DL [H.264] (Сезон 3, серии 1-3 из 13) LostFilm [MP4|1280x720]

 
 Статистика раздачи 
Размер: 3.66 ГБ   |  Зарегистрирован: 24 июн 2015, 23:05   |   .torrent скачан: 0 раз
Сидеров: 1  [ 0 байт/сек ]     Личеров: 1  [ 0 байт/сек ]  
  

Вызов / Непокорная Земля / Defiance (2015) WEB-DL [H.264] (Сезон 3, серии 1-3 из 13) LostFilm [MP4|1280x720]

Сообщение PetaByte » 24 июн 2015, 23:05

Вызов / Непокорная Земля / Defiance (2015) WEB-DL [H.264]
(Сезон 3, серии 1-3 из 13) LostFilm
«New Earth. New Rules»

Производство: США
Жанр: Фантастика, Боевик, Приключения

Режиссер: Майкл Нанкин
Актеры: Грант Боулер, Джули Бенц, Дьюшэйн Уильямс, Тони Карран, Тренна Китинг, Стефани Леонидас, Джейми Мюррэй, Николь Муньос, Джессика Николс, Джастин Рэйн

Описание:
Сюжет сериала "Вызов" рассказывает о Земле, какой она стала после Бледных войн: противостояния землян и прилетевших "на поселение" инопланетян, чья система бинарных солнц превратилась в сверхновую. После того, как потери с обеих сторон достигли ужасных размеров и на Землю по ошибке попали терраформирующие машины инопланетян, горстка солдат осознала бессмысленность взаимного истребления и бросает вызов своим командирам. Цепная реакция привела к перемирию между землянами и вотанцами. В начале сериала со времен объявления перемирия прошло 15 лет. Бывший солдат Джозеф Нолан со своей приемной дочкой-инопланетянкой Айриссой попадает в некогда родной Сент-Луис, и вынужденно становится защитником местных жителей на посту шерифа. Ему предстоит жить в городе, ныне носящем гордое название Вызов, населенном представителями 6 рас, и бороться с силами, пытающимися стереть его с лица Земли.



Продолжительность: ~ 00:45:00 серия
Качество видео: WEB-DL 720p
Перевод: Многоголосый закадровый, профессиональный - LostFilm
Озвучка: Студия «LostFilm»

Видео: AVC/H.264, 1280x720 (16:9), ~4000 Кбит/сек
Аудио: AAC, 2 канала, 248 Кбит/сек - русский (многоголосый закадровый, LostFilm)
Код:
Код: Выделить всё
Полное имя                               : D:\Defiance_s3_WEB-DL720p_x264_LostFilm_[NNM-CLUB]\Defiance.S03E01E02.720p.WEB.rus.LostFilm.TV.mp4
Формат                                   : MPEG-4
Профиль формата                          : Base Media
Идентификатор кодека                     : isom
Размер файла                             : 2,46 Гбайт
Продолжительность                        : 1 ч. 23 м.
Режим общего битрейта                    : Переменный
Общий поток                              : 4220 Кбит/сек
Коллекция                                : Непокорная Земля
Сезон                                    : 3
Альбом                                   : Непокорная Земля
Альбом/Исполнитель                       : Непокорная Земля
Часть                                    : 1
Часть/Положение                          : 3
Трек                                     : Мир, который мы захватим/Последние единороги
Трек/Положение                           : 1
Исполнитель                              : Непокорная Земля
Жанр                                     : Sci-Fi & Fantasy
Описание                                 : Сериал описывает ближайшее будущее, когда инопланетяне, известные под именем вотаны, приходят на Землю в поисках нового дома после того, как их звёздная система была разрушена при столкновении двух звезд. Вотаны полагали, что Земля необитаема.
Дата записи                              : 2015
Дата кодирования                         : UTC 2015-06-14 22:35:45
Дата пометки                             : UTC 2015-06-14 22:35:45
Программа кодирования                    : Yamb 2.1.0.0 [http:/yamb.unite-video.com]
Обложка                                  : Yes
Part_ID                                  : 301

Видео
Идентификатор                            : 1
Формат                                   : AVC
Формат/Информация                        : Advanced Video Codec
Профиль формата                          :
Параметр CABAC формата                   : Нет
Параметр ReFrames формата                : 4 кадра
Идентификатор кодека                     : avc1
Идентификатор кодека/Информация          : Advanced Video Coding
Продолжительность                        : 1 ч. 23 м.
Битрейт                                  : 4000 Кбит/сек
Максимальный битрейт                     : 6221 Кбит/сек
Ширина                                   : 1280 пикселей
Высота                                   : 720 пикселей
Соотношение сторон                       : 16:9
Режим частоты кадров                     : Постоянный
Частота кадров                           : 23,976 кадра/сек
Цветовое пространство                    : YUV
Субдискретизация насыщенности            : 4:2:0
Битовая глубина                          : 8 бит
Тип развёртки                            : Прогрессивная
Бит/(Пиксели*Кадры)                      : 0.181
Размер потока                            : 2,31 Гбайт (94%)
Заголовок                                : Imported with GPAC 0.4.6-DEV (internal rev. 5)
Библиотека кодирования                   : x264 core 112 r1834 a51816a
Настройки программы                      : cabac=0 / ref=3 / deblock=1:0:0 / analyse=0x3:0x113 / me=hex / subme=7 / psy=1 / psy_rd=1.00:0.00 / mixed_ref=1 / me_range=16 / chroma_me=1 / trellis=1 / 8x8dct=1 / cqm=0 / deadzone=21,11 / fast_pskip=1 / chroma_qp_offset=-2 / threads=12 / sliced_threads=0 / nr=0 / decimate=1 / interlaced=0 / constrained_intra=0 / bframes=3 / b_pyramid=2 / b_adapt=1 / b_bias=0 / direct=1 / weightb=1 / open_gop=0 / weightp=2 / keyint=250 / keyint_min=25 / scenecut=40 / intra_refresh=0 / rc_lookahead=40 / rc=abr / mbtree=1 / bitrate=4000 / ratetol=1.0 / qcomp=0.60 / qpmin=0 / qpmax=51 / qpstep=4 / vbv_maxrate=5000 / vbv_bufsize=2000 / ip_ratio=1.40 / aq=1:1.00 / nal_hrd=none
Дата кодирования                         : UTC 2015-06-14 22:33:52
Дата пометки                             : UTC 2015-06-14 22:36:22

Аудио
Идентификатор                            : 2
Формат                                   : AAC
Формат/Информация                        : Advanced Audio Codec
Профиль формата                          : LC
Идентификатор кодека                     : 40
Продолжительность                        : 1 ч. 23 м.
Вид битрейта                             : Переменный
Битрейт                                  : 248 Кбит/сек
Максимальный битрейт                     : 320 Кбит/сек
Каналы                                   : 2 канала
Расположение каналов                     : Front: L R
Частота                                  : 48,0 КГц
Метод сжатия                             : С потерями
Размер потока                            : 148 Мбайт (6%)
Дата кодирования                         : UTC 2015-06-14 22:35:52
Дата пометки                             : UTC 2015-06-14 22:36:22
Первые две серии объединены в один файл.
01 - Мир, который мы захватим / The World We Seize
02 - Последние единороги / The Last Unicorns
03 - Сломанная ветвь / The Broken Bough
Внимание! Раздача ведётся путём добавления новых серий; при каждом добавлении создаётся новый торрент.
Чтобы начать докачку новой серии, пользователям необходимо сделать следующее:
1. Остановить скачивание;
2. Удалить старый торрент у себя из клиента (старые серии удалять не надо);
3. Скачать новый торрент и запустить его у себя в клиенте вместо старого, при этом указать клиенту путь в старую папку куда и должно происходить скачивание новых серий. Ваш клиент при этом должен произвести хеширование (проверку) старой папки и будет докачивать только те серии, которых у вас ещё нет. Старые серии при этом не удаляются, а продолжают раздаваться! Eсли вы уже удалили старые серии, то предотвратить повторную закачку старых серий можно, отжав галочку в соответствующих местах при запуске нового торрента.

Скриншоты:




Время раздачи:
24/7 - круглосуточно
(до первых 5-ти сидов - потом по возможности)
 
Не забывайте говорить Спасибо. Не уходите с раздачи!   
Торрент: Зарегистрирован [24 июн 2015, 23:05] Для скачивания .torrent
необходима регистрация
Или скачать с помощью
MediaGet
Статус:
Проверен
 
.torrent скачан: 0 раз
Хэш: af9f0876eb97af1f370df2246c41d70e5eab3447
Размер: 3.66 ГБ (3 933 653 667 байт)
Стать Автором раздачи
 
 
Раздал: 10 ГБ
Скачал: 8 МБ
Ратио: 1280.000
Сообщения: 234240
Зарегистрирован: 22 фев 2013, 11:10


  • Похожие торренты
    Ответы
    Просмотры
    Последнее сообщение

Вернуться в Видео для мобильных устройств

Ресурс не предоставляет электронные версии произведений, а занимается лишь коллекционированием и каталогизацией ссылок, присылаемых и публикуемых на форуме нашими читателями. Если вы являетесь правообладателем какого-либо представленного материала и не желаете чтобы ссылка на него находилась в нашем каталоге, свяжитесь с нами и мы незамедлительно удалим её. Файлы для обмена на трекере предоставлены пользователями сайта, и администрация не несёт ответственности за их содержание. Просьба не заливать файлы, защищенные авторскими правами, а также файлы нелегального содержания!
cron