Грошовые ужасы / Страшные сказки / Penny Dreadful (2015) WEB-DLRip [H.264] (Сезон 2, серии 1-8 из 10) LostFilm [MP4|1280x720]

 
 Статистика раздачи 
Размер: 12.64 ГБ   |  Зарегистрирован: 24 июн 2015, 08:25   |   .torrent скачан: 0 раз
Сидеров: 1  [ 0 байт/сек ]     Личеров: 0  [ 0 байт/сек ]  
  

Грошовые ужасы / Страшные сказки / Penny Dreadful (2015) WEB-DLRip [H.264] (Сезон 2, серии 1-8 из 10) LostFilm [MP4|1280x720]

Сообщение Satch » 24 июн 2015, 08:25

Грошовые ужасы / Страшные сказки / Penny Dreadful (2015)
WEB-DLRip [H.264] (Сезон 2, серии 1-8 из 10) LostFilm
«There is some thing within us all»

Производство: США, Ирландия, Великобритания
Жанр: Ужасы, триллер

Режиссер: Х.А. Байона, Дирбла Уолш, Сэм Мендес
Актеры: Тимоти Далтон, Ева Грин, Джош Хартнетт, Рори Киннер, Хелен МакКрори, Билли Пайпер, Гарри Тредэвэй, Рив Карни, Алан Армстронг, Рик Берн и др.

Описание:
Викторианский Лондон. Здесь никогда не было безопасности и спокойствия. Горожане заняты исключительно повседневными делами, не замечая признаков грядущих изменений. Однако им следовало бы стать повнимательней, потому что на улицах британской столицы собирается нечисть самого разного толка, способная навести ужас на кого угодно. Со многими из представителей этой нечисти вы давно знакомы: тут вам и демонический юноша Дориан Грей из романа Оскара Уайльда, и многомудрый доктор Джекил вместе со своим альтер-эго мистером Хайдом, и немец Франкенштейн «под ручку» со своим чудовищным творением, и жаждущий крови великолепный граф Дракула из Трансильвании, а также его подручные-вампиры и другие, не менее зловещие сущности.

Начиная охоту за человеческими телами и душами, все они делят Лондон между собой. Люди боятся выходить из домов, а тёмные негодяи попросту развлекаются, не раздумывая о том, что рано или поздно должна прийти расплата за все их злодеяния. И вот об этой беде узнают охотники, всю свою жизнь посвятившие борьбе с нечистью. В числе положительных персонажей, разумеется, отметится и сам Ван Хельсинг.

Но и без главного персонажа сюжет не обходится. Им стал одиночка, приехавший из Америки — Итан Чэндлер. Его угораздило угодить в ловушку коварных вампиров и стать одержимым дьявольской красотой загадочной женщины-медиума Ванессы Айвз. В итоге жанр шоу определяется его авторами как «психосексуальный хоррор», а это звучит как нечто доселе совершенно неизвестное, новое и очень интересное.



Продолжительность: ~00:55:00 серия
Качество видео: WEB-DLRip 720p
Перевод: Многоголосый закадровый, профессиональный - LostFilm
Озвучка: Студия «LostFilm»

Видео: AVC/H.264, 1280x720 (16:9), ~4000 Кбит/сек
Аудио: AAC, 2 канала, 244 Кбит/сек - русский (многоголосый закадровый, LostFilm)
Код:
Код: Выделить всё
Полное имя                               : D:\Penny_Dreadful_s2_HDTVRip720p_x264_LostFilm_[NNM-CLUB]\Penny.Dreadful.S02E01.720p.WEB.rus.LostFilm.TV.mp4
Формат                                   : MPEG-4
Профиль формата                          : Base Media
Идентификатор кодека                     : isom
Размер файла                             : 1,61 Гбайт
Продолжительность                        : 55 м.
Режим общего битрейта                    : Переменный
Общий поток                              : 4175 Кбит/сек
Коллекция                                : Бульварные ужасы
Сезон                                    : 2
Альбом                                   : Бульварные ужасы, Сезон 2
Альбом/Исполнитель                       : Бульварные ужасы
Часть                                    : 1
Часть/Положение                          : 2
Трек                                     : Сущий ад
Трек/Положение                           : 1
Исполнитель                              : Бульварные ужасы
Жанр                                     : Drama
Тип содержимого                          : TV Show
Дата записи                              : 2015
Дата кодирования                         : UTC 2015-05-05 06:46:55
Дата пометки                             : UTC 2015-05-05 06:46:55
Программа кодирования                    : Yamb 2.1.0.0 [http:/yamb.unite-video.com] / LostCoder
Правообладатель                          : LostFilm.TV (c)
Обложка                                  : Yes
Примечание                               : Драматический хоррор с элементами триллера, основанный на сюжетах классической  / литературы. Судьбы вымышленных героев переплетутся с жизнями самых известных и  / страшных персонажей книг.
Part_ID                                  : 201

Видео
Идентификатор                            : 1
Формат                                   : AVC
Формат/Информация                        : Advanced Video Codec
Профиль формата                          :
Параметр CABAC формата                   : Нет
Параметр ReFrames формата                : 4 кадра
Идентификатор кодека                     : avc1
Идентификатор кодека/Информация          : Advanced Video Coding
Продолжительность                        : 55 м.
Битрейт                                  : 4000 Кбит/сек
Максимальный битрейт                     : 6541 Кбит/сек
Ширина                                   : 1280 пикселей
Высота                                   : 720 пикселей
Соотношение сторон                       : 16:9
Режим частоты кадров                     : Постоянный
Частота кадров                           : 23,976 кадра/сек
Цветовое пространство                    : YUV
Субдискретизация насыщенности            : 4:2:0
Битовая глубина                          : 8 бит
Тип развёртки                            : Прогрессивная
Бит/(Пиксели*Кадры)                      : 0.181
Размер потока                            : 1,51 Гбайт (94%)
Заголовок                                : Imported with GPAC 0.4.6-DEV (internal rev. 5)
Библиотека кодирования                   : x264 core 112 r1834 a51816a
Настройки программы                      : cabac=0 / ref=3 / deblock=1:0:0 / analyse=0x3:0x113 / me=hex / subme=7 / psy=1 / psy_rd=1.00:0.00 / mixed_ref=1 / me_range=16 / chroma_me=1 / trellis=1 / 8x8dct=1 / cqm=0 / deadzone=21,11 / fast_pskip=1 / chroma_qp_offset=-2 / threads=12 / sliced_threads=0 / nr=0 / decimate=1 / interlaced=0 / constrained_intra=0 / bframes=3 / b_pyramid=2 / b_adapt=1 / b_bias=0 / direct=1 / weightb=1 / open_gop=0 / weightp=2 / keyint=250 / keyint_min=25 / scenecut=40 / intra_refresh=0 / rc_lookahead=40 / rc=abr / mbtree=1 / bitrate=4000 / ratetol=1.0 / qcomp=0.60 / qpmin=0 / qpmax=51 / qpstep=4 / vbv_maxrate=5000 / vbv_bufsize=2000 / ip_ratio=1.40 / aq=1:1.00 / nal_hrd=none
Дата кодирования                         : UTC 2015-05-05 03:04:28
Дата пометки                             : UTC 2015-05-05 06:47:09

Аудио
Идентификатор                            : 2
Формат                                   : AAC
Формат/Информация                        : Advanced Audio Codec
Профиль формата                          : LC
Идентификатор кодека                     : 40
Продолжительность                        : 55 м.
Вид битрейта                             : Переменный
Битрейт                                  : 253 Кбит/сек
Максимальный битрейт                     : 314 Кбит/сек
Каналы                                   : 2 канала
Расположение каналов                     : Front: L R
Частота                                  : 48,0 КГц
Метод сжатия                             : С потерями
Размер потока                            : 99,7 Мбайт (6%)
Дата кодирования                         : UTC 2015-05-05 06:47:00
Дата пометки                             : UTC 2015-05-05 06:47:09
01 - Сущий ад / Fresh Hell
02 - Язык Дьявола / Verbis Diablo
03 - Приходящие в ночи / The Nightcomers
04 - Духи злобы поднебесной / Evil Spirits in Heavenly Places
05 - Вверху — лишь купол синий / Above the Vaulted Sky
06 - Великие ужасы / Glorious Horrors
07 - Маленький скорпион / Little Scorpion
08 - Помни о смерти / Memento Mori
Внимание! Раздача ведётся путём добавления новых серий; при каждом добавлении создаётся новый торрент.
Чтобы начать докачку новой серии, пользователям необходимо сделать следующее:
1. Остановить скачивание;
2. Удалить старый торрент у себя из клиента (старые серии удалять не надо);
3. Скачать новый торрент и запустить его у себя в клиенте вместо старого, при этом указать клиенту путь в старую папку куда и должно происходить скачивание новых серий. Ваш клиент при этом должен произвести хеширование (проверку) старой папки и будет докачивать только те серии, которых у вас ещё нет. Старые серии при этом не удаляются, а продолжают раздаваться! Eсли вы уже удалили старые серии, то предотвратить повторную закачку старых серий можно, отжав галочку в соответствующих местах при запуске нового торрента.
Скриншоты:




Время раздачи:
24/7 - круглосуточно
(до первых 5-ти сидов - потом по возможности)
 
Не забывайте говорить Спасибо. Не уходите с раздачи!   
Торрент: Зарегистрирован [24 июн 2015, 08:25] Для скачивания .torrent
необходима регистрация
Или скачать с помощью
MediaGet
Статус:
Проверен
 
.torrent скачан: 0 раз
Хэш: eea564eb5f2e906afe6a15d606041383f1917398
Размер: 12.64 ГБ (13 567 212 571 байт)
Стать Автором раздачи
 
Аватара пользователя
 
Раздал: 2.45 ГБ
Скачал: 15.94 МБ
Ратио: 157.696
Сообщения: 337733
Зарегистрирован: 16 янв 2012, 17:03


  • Похожие торренты
    Ответы
    Просмотры
    Последнее сообщение

Вернуться в Видео для мобильных устройств

Ресурс не предоставляет электронные версии произведений, а занимается лишь коллекционированием и каталогизацией ссылок, присылаемых и публикуемых на форуме нашими читателями. Если вы являетесь правообладателем какого-либо представленного материала и не желаете чтобы ссылка на него находилась в нашем каталоге, свяжитесь с нами и мы незамедлительно удалим её. Файлы для обмена на трекере предоставлены пользователями сайта, и администрация не несёт ответственности за их содержание. Просьба не заливать файлы, защищенные авторскими правами, а также файлы нелегального содержания!
cron