Марсианин / The Martian (2015) DCPRip [4K] [2160p] [Трейлер]

 
 Статистика раздачи 
Размер: 1.09 ГБ   |  Зарегистрирован: 15 июн 2015, 02:57   |   .torrent скачан: 0 раз
Сидеров: 1  [ 0 байт/сек ]     Личеров: 0  [ 0 байт/сек ]  
  

Марсианин / The Martian (2015) DCPRip [4K] [2160p] [Трейлер]

Сообщение Seepas » 15 июн 2015, 02:57

Марсианин / The Martian (2015) DCPRip

Производство: США, Genre Films, International Traders, Mid Atlantic Films
Жанр: Фантастика, Приключения

Режиссер: Ридли Скотт
Актеры: Мэтт Дэймон, Кейт Мара, Джессика Честейн, Себастьян Стэн, Кристен Виг, Шон Бин

Описание:
Марсианская миссия «Арес-3» в процессе работы была вынуждена экстренно покинуть планету из-за надвигающейся песчаной бури. Инженер и биолог Марк Уотни получил повреждение скафандра во время песчаной бури. Сотрудники миссии, посчитав его погибшим, эвакуировались с планеты, оставив Марка одного.
Очнувшись, Уотни обнаруживает, что связь с Землёй отсутствует, но при этом полностью функционирует жилой модуль. Главный герой начинает искать способ продержаться на имеющихся запасах еды, витаминов, воды и воздуха ещё 4 года до прилёта следующей миссии «Арес-4».



Дата мировой премьеры: 25 ноября 2015
Дата премьеры в России: 1 октября 2015, «Двадцатый Век Фокс СНГ» 3D

Продолжительность: 00:03:34
Качество видео: DCPRip
Перевод: Дублированный

Видео: AVC, 3840x2160 (16:9), 23.976 fps, 42.4 Mbps (0.213 bit/pixel)
Аудио: AC-3, 48.0 KHz, 6 ch, 448 Kbps, CBR (Russian)
Код:
Код: Выделить всё
General
Unique ID                   : 242512683858721185864436875997871292654 (0xB6723E750FD7BCDCA79D71375C2340EE)
Complete name               : D:\The Martian (2015)_2160p_trl.mkv
Format                      : Matroska
Format version              : Version 4 / Version 2
File size                   : 1.09 GiB
Duration                    : 3mn 34s
Overall bit rate mode       : Constant
Overall bit rate            : 43.7 Mbps
Movie name                  : [l0ngb0y4nnm]
Encoded date                : UTC 2015-06-14 18:54:52
Writing application         : mkvmerge v7.8.0 ('River Man') 32bit built on Mar 27 2015 16:18:02
Writing library             : libebml v1.3.1 + libmatroska v1.4.2
Attachements                : poster.jpg
DURATION                    : 00:03:34.590000000
NUMBER_OF_FRAMES            : 5145
NUMBER_OF_BYTES             : 1159917144
_STATISTICS_WRITING_APP     : mkvmerge v7.8.0 ('River Man') 32bit built on Mar 27 2015 16:18:02
_STATISTICS_WRITING_DATE_UT : 2015-06-14 18:54:52
_STATISTICS_TAGS            : BPS DURATION NUMBER_OF_FRAMES NUMBER_OF_BYTES

Video
ID                          : 1
Format                      : AVC
Format/Info                 : Advanced Video Codec
Format profile              :
Format settings, CABAC      : Yes
Format settings, ReFrames   : 1 frame
Format settings, GOP        : M=1, N=25
Codec ID                    : V_MPEG4/ISO/AVC
Duration                    : 3mn 34s
Bit rate mode               : Constant
Bit rate                    : 42.4 Mbps
Nominal bit rate            : 50.0 Mbps
Width                       : 3 840 pixels
Height                      : 2 160 pixels
Display aspect ratio        : 16:9
Frame rate mode             : Constant
Frame rate                  : 23.976 fps
Color space                 : YUV
Chroma subsampling          : 4:2:0
Bit depth                   : 8 bits
Scan type                   : Progressive
Bits/(Pixel*Frame)          : 0.213
Stream size                 : 1.06 GiB (97%)
Title                       : 2160p
Language                    : English
Default                     : Yes
Forced                      : No

Audio
ID                          : 2
Format                      : AC-3
Format/Info                 : Audio Coding 3
Mode extension              : CM (complete main)
Format settings, Endianness : Big
Codec ID                    : A_AC3
Duration                    : 3mn 34s
Bit rate mode               : Constant
Bit rate                    : 448 Kbps
Channel(s)                  : 6 channels
Channel positions           : Front: L C R, Side: L R, LFE
Sampling rate               : 48.0 KHz
Compression mode            : Lossy
Stream size                 : 11.5 MiB (1%)
Title                       : дубляж
Language                    : Russian
Default                     : Yes
Forced                      : No
Фильм снят по одноименному роману Энди Уира.

Скриншоты:



Время раздачи: 24/7 до 5 скачавших!
 
Не забывайте говорить Спасибо. Не уходите с раздачи!   
Торрент: Зарегистрирован [15 июн 2015, 02:57] Для скачивания .torrent
необходима регистрация
Или скачать с помощью
MediaGet
Статус:
Проверен
 
.torrent скачан: 0 раз
Хэш: 9eb46b37467981f9815368470e93d8f904e9214a
Размер: 1.09 ГБ (1 172 233 980 байт)
Стать Автором раздачи
 
 
Раздал: 0 байт
Скачал: 0 байт
Ратио: Inf.
Сообщения: 188877
Зарегистрирован: 14 июн 2014, 20:46


  • Похожие торренты
    Ответы
    Просмотры
    Последнее сообщение

Вернуться в Трейлеры и дополнительные материалы к фильмам

Кто сейчас на конференции

Сейчас эту тему просматривают: нет зарегистрированных пользователей и гости: 1

Ресурс не предоставляет электронные версии произведений, а занимается лишь коллекционированием и каталогизацией ссылок, присылаемых и публикуемых на форуме нашими читателями. Если вы являетесь правообладателем какого-либо представленного материала и не желаете чтобы ссылка на него находилась в нашем каталоге, свяжитесь с нами и мы незамедлительно удалим её. Файлы для обмена на трекере предоставлены пользователями сайта, и администрация не несёт ответственности за их содержание. Просьба не заливать файлы, защищенные авторскими правами, а также файлы нелегального содержания!