Animal Planet: Голубые Багамы / Bahama Blue [серии 1-5 из 6] (2014) HDTVRip [H.264/720p] [обновляемая]

 
 Статистика раздачи 
Размер: 7.9 ГБ   |  Зарегистрирован: 07 июн 2015, 02:45   |   .torrent скачан: 1 раз
Сидеров: 1  [ 0 байт/сек ]     Личеров: 0  [ 0 байт/сек ]  
  

Animal Planet: Голубые Багамы / Bahama Blue [серии 1-5 из 6] (2014) HDTVRip [H.264/720p] [обновляемая]

Сообщение Thistoll » 07 июн 2015, 02:45

Animal Planet: Голубые Багамы / Bahama Blue [серии 1-5 из 6] (2014) HDTVRip 720p

Телекомпания: Parallax Film Productions
Режиссер: Ian Herring
Жанр: Документальный

Продолжительность: 5x~00:44:15
Качество видео: HDTVRip 720p

Перевод: Одноголосый закадровый, профессиональный, озвучено на студии АРК ТВ, текст читают Антон Савенков, Денис Некрасов, Александр Гаврилин

Видео: AVC/H.264, 1280x720, ~4614 Kbps
Аудио: AC3, 6 ch, 384 kbps, 48 kHz

Описание:
Багамы. Острова, знаменитые своей красотой. За многие тысячи лет выросшие на основании древнего кораллового рифа. На 3000 багамских островах идёт постоянная борьба между жизнью и смертью, которые ведут самые устрашающие и самые чудесные создания на планете.
Этот документальный фильм из шести серий перенесет вас в сердце глубокого синего моря. Погрузитесь в удивительные пещеры и синие отверстия, чтобы найти биологические аномалии, которые процветают в темных водах, насыщенных сероводородом и низким кислородом. Проникните в клубок мангровых лесов, растущих из соленого болота, где находится питомник рыб и беспозвоночных, пока они не являются достаточно большими и умными, чтобы конкурировать на коралловых рифах. Посетите красивые пляжи Багамских островов. Каждый эпизод познакомить вас с обильной дикой природой.
Список серий:
Под поверхностью этого тропического рая на островах Абако скрывается мир созданный миллионами лет геологической активности. В основании каждого из островов лежит известняк, образовавшийся из песка и кораллов тёплых мелководных морей. От их испанского названия Бахамар и появилось современное - Багамы. Лазурная морская гладь скрывает самые опасные глубины, в которых рождение и смерть сменяют друг друга самым естественным – и порой ужасающим – образом.
Подводный ландшафт, созданный кораллами и морскими созданиями ищущими здесь пищу и приют, является одним из самых разнообразных и ярких на планете. Это особенно хорошо видно на Багамских островах. Современные рифы дают пищу и кров тысячам видов. Прибрежные рифы принимают на себя удары океана и защищают берега островов. Днём и ночью обитатели этих мест борются за жизненное пространство и пищу. Процветание рифов обеспечивается достижением идеального баланса между растениями и животными. Но здесь слишком много обитателей и конкуренция высока, чтобы заявить свои права на собственный кусочек рифа.
Багамы-обширный архипелаг. Островная страна, раскинувшаяся в Атлантическом океане на территории в 155 тыс. квадратных километров. Уникальное известняковое строение превратило Багамы в удивительную среду для наблюдения за живой природой. На побережьи расположились мангровые заросли-переплетение кустарника, растущего из ила солёного озера. Заглянем в эти удивительные места и посмотрим на жизнь их обитателей.
Большую часть содружества Багамских островов занимают водные просторы. Знаменитое бирюзовое мелководье резко обрывается в глубину на сотни метров и цвет моря меняется на тёмно синий. Участок морских вод между берегом и дном называется пелагической зоной. Обитающие там существа хорошо приспособлены для преодоления больших расстояний, поисков пищи, укрытия или партнёров. Они должны уметь плавать далеко или очень быстро или глубоко нырять, а некоторые умеют кататься на других. Эти места кажутся настоящей пустыней по сравнению с кишащей жизнью прибрежнимы районами. Меньше 10% существ населяют эти просторы, что усложняет для них поиск пищи, а нам изучение их жизни...
Багамские острова знамениты своими обширными песчаными равнинами как на берегах так и под водой. Крошечные песчинки, приносимые течениями и приливами, образуют характерные бухты, отмели и дюны определяющие облик этих островов. Из - за постоянного движения воды и света кажется, что песчаные поверхности всё время меняются и движутся, помогая существам, которые в песке прячутся, устраивают гнёзда и ищут пропитание, вознаграждая животных, филигранно приспособившихся к этим условиям.
06. Wonderland
Код:
Код: Выделить всё
Format                         : Matroska
Format version                 : Version 4 / Version 2
File size                      : 1.58 GiB
Duration                       : 44mn 14s
Overall bit rate mode          : Constant
Overall bit rate               : 5 100 Kbps
Encoded date                   : UTC 2015-05-06 17:33:45
Writing application            : mkvmerge v7.8.0 ('River Man') 64bit built on Mar 27 2015 16:31:37
Writing library                : libebml v1.3.1 + libmatroska v1.4.2
DURATION                       : 00:44:14.920000000
NUMBER_OF_FRAMES               : 66373
NUMBER_OF_BYTES                : 1564453685
_STATISTICS_WRITING_APP        : mkvmerge v7.8.0 ('River Man') 64bit built on Mar 27 2015 16:31:37
_STATISTICS_WRITING_DATE_UTC   : 2015-05-06 17:33:45
_STATISTICS_TAGS               : BPS DURATION NUMBER_OF_FRAMES NUMBER_OF_BYTES

Video
ID                             : 1
Format                         : AVC
Format/Info                    : Advanced Video Codec
Format profile                 :
Format settings, CABAC         : Yes
Format settings, ReFrames      : 3 frames
Codec ID                       : V_MPEG4/ISO/AVC
Duration                       : 44mn 14s
Bit rate mode                  : Constant
Bit rate                       : 4 614 Kbps
Nominal bit rate               : 5 000 Kbps / 5 000 Kbps
Width                          : 1 280 pixels
Height                         : 720 pixels
Display aspect ratio           : 16:9
Frame rate mode                : Constant
Frame rate                     : 25.000 fps
Standard                       : NTSC
Color space                    : YUV
Chroma subsampling             : 4:2:0
Bit depth                      : 8 bits
Scan type                      : Progressive
Bits/(Pixel*Frame)             : 0.200
Stream size                    : 1.43 GiB (90%)
Writing library                : x264 core 114
Encoding settings              : cabac=1 / ref=3 / deblock=1:0:0 / analyse=0x3:0x113 / me=hex / subme=7 / psy=1 / psy_rd=1.00:0.00 / mixed_ref=1 / me_range=16 / chroma_me=1 / trellis=1 / 8x8dct=1 / cqm=2 / deadzone=21,11 / fast_pskip=1 / chroma_qp_offset=-2 / threads=6 / sliced_threads=0 / slices=1 / nr=0 / decimate=1 / interlaced=0 / constrained_intra=0 / bframes=3 / b_pyramid=0 / b_adapt=1 / b_bias=0 / direct=1 / weightb=1 / open_gop=0 / weightp=2 / keyint=250 / keyint_min=25 / scenecut=40 / intra_refresh=0 / rc_lookahead=40 / rc=cbr / mbtree=1 / bitrate=5000 / ratetol=1.0 / qcomp=0.60 / qpmin=3 / qpmax=69 / qpstep=4 / vbv_maxrate=5000 / vbv_bufsize=4997 / nal_hrd=cbr / ip_ratio=1.40 / aq=1:1.00
Default                        : Yes
Forced                         : No
Color range                    : Limited
Color primaries                : BT.709
Transfer characteristics       : BT.709
Matrix coefficients            : BT.709

Audio
ID                             : 2
Format                         : AC-3
Format/Info                    : Audio Coding 3
Mode extension                 : CM (complete main)
Format settings, Endianness    : Big
Codec ID                       : A_AC3
Duration                       : 44mn 14s
Bit rate mode                  : Constant
Bit rate                       : 384 Kbps
Channel(s)                     : 6 channels
Channel positions              : Front: L C R, Side: L R, LFE
Sampling rate                  : 48.0 KHz
Compression mode               : Lossy
Stream size                    : 122 MiB (8%)
Default                        : Yes
Forced                         : No

Скриншоты:




Время раздачи: до 23:00 к.в.
 
Не забывайте говорить Спасибо. Не уходите с раздачи!   
Торрент: Зарегистрирован [07 июн 2015, 02:45] Для скачивания .torrent
необходима регистрация
Или скачать с помощью
MediaGet
Статус:
Проверен
 
.torrent скачан: 1 раз
Хэш: f39f31e21a129d5eb2feb65fca560bc1d46950f2
Размер: 7.9 ГБ (8 486 628 368 байт)
Стать Автором раздачи
 
 
Раздал: 6.67 ГБ
Скачал: 302.5 МБ
Ратио: 22.576
Сообщения: 374284
Зарегистрирован: 17 апр 2014, 11:05


  • Похожие торренты
    Ответы
    Просмотры
    Последнее сообщение

Вернуться в Animal Planet

Кто сейчас на конференции

Сейчас эту тему просматривают: нет зарегистрированных пользователей и гости: 1

Ресурс не предоставляет электронные версии произведений, а занимается лишь коллекционированием и каталогизацией ссылок, присылаемых и публикуемых на форуме нашими читателями. Если вы являетесь правообладателем какого-либо представленного материала и не желаете чтобы ссылка на него находилась в нашем каталоге, свяжитесь с нами и мы незамедлительно удалим её. Файлы для обмена на трекере предоставлены пользователями сайта, и администрация не несёт ответственности за их содержание. Просьба не заливать файлы, защищенные авторскими правами, а также файлы нелегального содержания!